0
1 Star2 Stars3 Stars4 Stars5 Stars (No Ratings Yet)
Loading...

13 Hours: The Secret Soldiers of Benghazi 2016 AMZN WEB-DL

13 Hours: The Secret Soldiers of Benghazi

13 Hours: The Secret Soldiers of Benghazi Action, Drama, Thriller, War | 144min | January 15, 2016 (United States) 7.3
Director: Michael BayWriter: Chuck Hogan, Mitchell ZuckoffStars: John Krasinski, Pablo Schreiber, James Badge DaleSummary: Libya, 2012. At an unofficial CIA base in Benghazi a group of ex-military contractors are providing security. In the aftermath of Gaddafi's downfall a power vacuum exists and the climate is volatile. Military weapons are freely available. The US Ambassador to Libya, Chris Stevens, makes a visit to the area, staying in a compound near the CIA base. On the night of 11 September, 2012, the Ambassador's compound is attacked by hordes of heavily armed locals. The only forces willing and able to defend it are six CIA contractors. —grantss

Photos


See all photos >>

13 Hours

Media-Info 13 Hours: The Secret Soldiers of Benghazi

13 Hours The Secret Soldiers of Benghazi 2016 1080p WEB-DL DDP5.1 H264 ESub – WiKi-PiKi.mkv
Format : Matroska
Format version : Version 4
File size : 12.7 GiB
Duration : 2 h 24 min
Overall bit rate : 12.6 Mb/s
Movie name : GoldminesHD.Club
Encoded date : UTC 2021-09-13 03:40:28
Writing application : mkvmerge v56.1.0 (‘My Friend’) 64-bit
Writing library : libebml v1.4.2 + libmatroska v1.6.4
Attachments : WiKi-PiKi.jpg

Video
ID : 1
Format : AVC
Format/Info : Advanced Video Codec
Format profile : [email protected]
Format settings : CABAC / 4 Ref Frames
Format settings, CABAC : Yes
Format settings, Reference frames : 4 frames
Codec ID : V_MPEG4/ISO/AVC
Duration : 2 h 24 min
Bit rate : 12.0 Mb/s
Width : 1 920 pixels
Height : 800 pixels
Display aspect ratio : 2.40:1
Frame rate mode : Constant
Frame rate : 23.976 (24000/1001) FPS
Color space : YUV
Chroma subsampling : 4:2:0
Bit depth : 8 bits
Scan type : Progressive
Bits/(Pixel*Frame) : 0.326
Stream size : 12.1 GiB (95%)
Title : [email protected]
Writing library : x264 core 138
Encoding settings : cabac=1 / ref=4 / deblock=1:0:0 / analyse=0x3:0x133 / me=umh / subme=9 / psy=1 / psy_rd=1.00:0.00 / mixed_ref=1 / me_range=16 / chroma_me=1 / trellis=2 / 8x8dct=1 / cqm=0 / deadzone=21,11 / fast_pskip=1 / chroma_qp_offset=-2 / threads=6 / lookahead_threads=1 / sliced_threads=0 / nr=0 / decimate=1 / interlaced=0 / bluray_compat=0 / constrained_intra=0 / bframes=3 / b_pyramid=0 / b_adapt=2 / b_bias=0 / direct=3 / weightb=1 / open_gop=0 / weightp=2 / keyint=48 / keyint_min=4 / scenecut=0 / intra_refresh=0 / rc_lookahead=48 / rc=abr / mbtree=1 / bitrate=12000 / ratetol=1.0 / qcomp=0.60 / qpmin=0 / qpmax=69 / qpstep=4 / vbv_maxrate=16800 / vbv_bufsize=24000 / nal_hrd=none / filler=0 / ip_ratio=1.40 / aq=1:1.00
Default : Yes
Forced : No

Audio
ID : 2
Format : E-AC-3
Format/Info : Enhanced AC-3
Commercial name : Dolby Digital Plus
Codec ID : A_EAC3
Duration : 2 h 24 min
Bit rate mode : Constant
Bit rate : 640 kb/s
Channel(s) : 6 channels
Channel layout : L R C LFE Ls Rs
Sampling rate : 48.0 kHz
Frame rate : 31.250 FPS (1536 SPF)
Compression mode : Lossy
Stream size : 661 MiB (5%)
Title : [email protected]
Language : English
Service kind : Complete Main
Default : Yes
Forced : No

Text
ID : 3
Format : S_TEXT/WEBVTT
Codec ID : S_TEXT/WEBVTT
Duration : 2 h 14 min
Bit rate : 67 b/s
Count of elements : 2134
Stream size : 66.5 KiB (0%)
Title : [email protected]
Language : English
Default : Yes
Forced : No

13 Hours Screenshots:


















Download 1080p – 12.71GB

Download 1080p – 8.39GB

For All English Movies Click Here

Facebook Comments Box

Duration: 144 min

Quality: WEB-DL

Release:

IMDb: 7.3

13 Hours: The Secret Soldiers of Benghazi 2016 AMZN WEB-DL
13 Hours: The Secret Soldiers of Benghazi 2016 AMZN WEB-DL
13 Hours: The Secret Soldiers of Benghazi 2016 AMZN WEB-DL
13 Hours: The Secret Soldiers of Benghazi 2016 AMZN WEB-DL
13 Hours: The Secret Soldiers of Benghazi 2016 AMZN WEB-DL
13 Hours: The Secret Soldiers of Benghazi 2016 AMZN WEB-DL
13 Hours: The Secret Soldiers of Benghazi 2016 AMZN WEB-DL
13 Hours: The Secret Soldiers of Benghazi 2016 AMZN WEB-DL
13 Hours: The Secret Soldiers of Benghazi 2016 AMZN WEB-DL