0
1 Star2 Stars3 Stars4 Stars5 Stars (No Ratings Yet)
Loading...

Aaha Kalyanam 2014 Telugu AMZN WEB-DL

Aaha Kalyanam

Wow Marriage Comedy, Romance | 142min | February 21, 2014 (United States) 6.0
Director: Gokul KrishnaWriter: Habib Faisal, Rajiv Rajaram, Maneesh SharmaStars: Nani, Vaani Kapoor, Badava GopiSummary: Finance and romance can never go hand in hand. This is the story of a focused and determined Shruti and a fun-loving, carefree Shaktivel, who by chance become partners in their very own wedding planning business. Together, their friendship and business, enters the ups and down of the lavish Chennai weddings. And while trying to find themselves, Shruti and Shakti discover each other and realize that rule book cannot be followed always. —Yash Raj Films

Photos


See all photos >>

Aaha Kalyanam 2014

Media-Info Aaha Kalyanam

Aaha Kalyanam 2014 Telugu 1080p AMZN WEB-DL DDP5.1 H264 MSub – WiKi-PiKi.mkv
Format : Matroska
Format version : Version 4
File size : 9.91 GiB
Duration : 2 h 21 min
Overall bit rate : 10.0 Mb/s
Movie name : GoldminesHD.Club
Encoded date : UTC 2021-09-10 15:22:35
Writing application : mkvmerge v56.1.0 (‘My Friend’) 64-bit
Writing library : libebml v1.4.2 + libmatroska v1.6.4
Attachments : WiKi-PiKi.jpg

Video
ID : 1
Format : AVC
Format/Info : Advanced Video Codec
Format profile : [email protected]
Format settings : CABAC / 4 Ref Frames
Format settings, CABAC : Yes
Format settings, Reference frames : 4 frames
Codec ID : V_MPEG4/ISO/AVC
Duration : 2 h 21 min
Bit rate : 9 396 kb/s
Width : 1 920 pixels
Height : 816 pixels
Display aspect ratio : 2.35:1
Frame rate mode : Constant
Frame rate : 23.976 (24000/1001) FPS
Color space : YUV
Chroma subsampling : 4:2:0
Bit depth : 8 bits
Scan type : Progressive
Bits/(Pixel*Frame) : 0.250
Stream size : 9.27 GiB (94%)
Title : [email protected]
Default : Yes
Forced : No
Color range : Limited
Color primaries : BT.709
Transfer characteristics : BT.709
Matrix coefficients : BT.709

Audio
ID : 2
Format : E-AC-3
Format/Info : Enhanced AC-3
Commercial name : Dolby Digital Plus
Codec ID : A_EAC3
Duration : 2 h 21 min
Bit rate mode : Constant
Bit rate : 640 kb/s
Channel(s) : 6 channels
Channel layout : L R C LFE Ls Rs
Sampling rate : 48.0 kHz
Frame rate : 31.250 FPS (1536 SPF)
Compression mode : Lossy
Stream size : 647 MiB (6%)
Title : [email protected]
Language : Telugu
Service kind : Complete Main
Default : Yes
Forced : No

Text #1
ID : 3
Format : UTF-8
Codec ID : S_TEXT/UTF8
Codec ID/Info : UTF-8 Plain Text
Duration : 2 h 12 min
Bit rate : 139 b/s
Count of elements : 1798
Stream size : 135 KiB (0%)
Title : [email protected]
Language : Hindi
Default : Yes
Forced : No

Text #2
ID : 4
Format : UTF-8
Codec ID : S_TEXT/UTF8
Codec ID/Info : UTF-8 Plain Text
Duration : 2 h 12 min
Bit rate : 169 b/s
Count of elements : 1890
Stream size : 165 KiB (0%)
Title : [email protected]
Language : Tamil
Default : No
Forced : No

Text #3
ID : 5
Format : UTF-8
Codec ID : S_TEXT/UTF8
Codec ID/Info : UTF-8 Plain Text
Duration : 2 h 12 min
Bit rate : 175 b/s
Count of elements : 1890
Stream size : 170 KiB (0%)
Title : [email protected]
Language : Tamil
Default : No
Forced : No

Aaha Kalyanam Screenshots:


































Download 1080p – 9.91GB

For All Bengali Movies Click Here

Facebook Comments Box

Duration: 142 min

Quality: WEB-DL

Release:

IMDb: 6.0

Aaha Kalyanam 2014 Telugu AMZN WEB-DL