0
1 Star2 Stars3 Stars4 Stars5 Stars (No Ratings Yet)
Loading...

ABHIMAAN 2016

Abhimaan 2016

Abhimaan Indian Bengali Movie. action,comedy film directed by Raj Chakraborty

Abhimaan (2016) Family | 132min | 6 October 2016 (India) 6.1
Director: Raj ChakrabortyWriter: Anshuman PratyushStars: Sayantika Banerjee, Subhasree Ganguly, JeetSummary: It's story of a proud business Italian-Bengali tycoon Ashok and his estranged daughter Madhuja.Madhuja harbours hate for her father who disowned her. Twenty five years later, Ashok now wants to mend his relationship with Madhuja. For this, he seeks the help of his grandson Aditya. The rest of the story is how Aditya with his charm and wit wins his aunt over and unites the whole family.

Photos


See all photos >>

Abhimaan 2016

Media-Info Abhimaan 2016

General

Abhimaan 2016 1080p AMZN WEB-DL H264 DDP 2.0 D0T-Telly.mkv
Format : Matroska
Format version : Version 4
File size : 8.75 GiB
Duration : 2 h 18 min
Overall bit rate : 9 030 kb/s
Movie name : DOT :Team Telly
Encoded date : UTC 2021-04-17 07:21:00
Writing application : mkvmerge v51.0.0 (‘I Wish’) 64-bit
Writing library : libebml v1.4.0 + libmatroska v1.6.2

Video
ID : 1
Format : AVC
Format/Info : Advanced Video Codec
Format profile : [email protected]
Format settings : CABAC / 4 Ref Frames
Format settings, CABAC : Yes
Format settings, Reference frames : 4 frames
Codec ID : V_MPEG4/ISO/AVC
Duration : 2 h 18 min
Bit rate mode : Constant
Bit rate : 8 806 kb/s
Nominal bit rate : 10 000 kb/s
Width : 1 920 pixels
Height : 1 080 pixels
Display aspect ratio : 16:9
Frame rate mode : Constant
Frame rate : 24.000 FPS
Color space : YUV
Chroma subsampling : 4:2:0
Bit depth : 8 bits
Scan type : Progressive
Bits/(Pixel*Frame) : 0.177
Stream size : 8.53 GiB (97%)
Default : Yes
Forced : No
Color range : Limited
Color primaries : BT.709
Transfer characteristics : BT.709
Matrix coefficients : BT.709

Audio
ID : 2
Format : E-AC-3
Format/Info : Enhanced AC-3
Commercial name : Dolby Digital Plus
Codec ID : A_EAC3
Duration : 2 h 18 min
Bit rate mode : Constant
Bit rate : 224 kb/s
Channel(s) : 2 channels
Channel layout : L R
Sampling rate : 48.0 kHz
Frame rate : 31.250 FPS (1536 SPF)
Compression mode : Lossy
Stream size : 222 MiB (2%)
Title : Bangla
Language : Bengali
Service kind : Complete Main
Default : No
Forced : No

Text
ID : 3
Format : UTF-8
Codec ID : S_TEXT/UTF8
Codec ID/Info : UTF-8 Plain Text
Duration : 2 h 17 min
Bit rate : 59 b/s
Count of elements : 1562
Stream size : 59.8 KiB (0%)
Title : English (SDH)
Language : English
Default : No
Forced : No

Abhimaan 2016 ScreenShots














Abhimaan 2016

Drive Sharer Link

WEB-DL—-H264

Download 1080p – 8.75 GB

Download 720p – 4.54 GB

WEB-DL—-265

Download 1080p – 4.12 GB

Download 720p – 1.6 GB

WEBRIP

Download 1080p – 3.56 GB

Download 720p – 1.73 GB

Download 360p – 484.MB

Click Here For More Bengali Movie Download

Facebook Comments Box

Views: 225

Genre: Family

Director:

Actors: , ,

Country:

Duration: 132 min

Quality: WEB-DL

Release:

IMDb: 6.1

ABHIMAAN 2016