0
1 Star2 Stars3 Stars4 Stars5 Stars (No Ratings Yet)
Loading...

Ae Dil Hai Mushkil 2016 AMZN WEB-DL MSub

Ae Dil Hai Mushkil

O Heart, It Is Difficult Drama, Music, Musical, Romance | 158min | October 28, 2016 (United States) 5.8
Director: Karan JoharWriter: Karan Johar, Niranjan IyengarStars: Ranbir Kapoor, Aishwarya Rai Bachchan, Anushka SharmaSummary: A story about unrequited love - the shapes it takes, the ways it changes us and the exhilarating and often heartbreaking ride it takes us on. It is the journey of three characters, Ayan, Alizeh and Saba, as their lives intertwine and they navigate life, love and heartbreak. —Official Source

Photos


See all photos >>

Ae Dil Hai Mushkil

Media-Info Ae Dil Hai Mushkil

Ae Dil Hai Mushkil 2016 Hindi 1080p AMZN WEB-DL DDP5.1 H264 MSub – WiKi-PiKi.mkv
Format : Matroska
Format version : Version 4
File size : 7.31 GiB
Duration : 2 h 35 min
Overall bit rate : 6 730 kb/s
Movie name : GoldminesHD.Club
Encoded date : UTC 2021-09-05 00:09:25
Writing application : mkvmerge v56.1.0 (‘My Friend’) 64-bit
Writing library : libebml v1.4.2 + libmatroska v1.6.4
Attachments : WiKi-PiKi.jpg

Video
ID : 1
Format : AVC
Format/Info : Advanced Video Codec
Format profile : [email protected]
Format settings : CABAC / 4 Ref Frames
Format settings, CABAC : Yes
Format settings, Reference frames : 4 frames
Codec ID : V_MPEG4/ISO/AVC
Duration : 2 h 35 min
Bit rate : 6 087 kb/s
Width : 1 920 pixels
Height : 800 pixels
Display aspect ratio : 2.40:1
Frame rate mode : Constant
Frame rate : 23.976 (24000/1001) FPS
Color space : YUV
Chroma subsampling : 4:2:0
Bit depth : 8 bits
Scan type : Progressive
Bits/(Pixel*Frame) : 0.165
Stream size : 6.62 GiB (90%)
Title : [email protected]
Default : Yes
Forced : No
Color range : Limited
Color primaries : BT.709
Transfer characteristics : BT.709
Matrix coefficients : BT.709

Audio
ID : 2
Format : E-AC-3
Format/Info : Enhanced AC-3
Commercial name : Dolby Digital Plus
Codec ID : A_EAC3
Duration : 2 h 35 min
Bit rate mode : Constant
Bit rate : 640 kb/s
Channel(s) : 6 channels
Channel layout : L R C LFE Ls Rs
Sampling rate : 48.0 kHz
Frame rate : 31.250 FPS (1536 SPF)
Compression mode : Lossy
Stream size : 712 MiB (10%)
Title : [email protected]
Language : Hindi
Service kind : Complete Main
Default : Yes
Forced : No

Text #1
ID : 3
Format : UTF-8
Codec ID : S_TEXT/UTF8
Codec ID/Info : UTF-8 Plain Text
Duration : 2 h 24 min
Bit rate : 38 b/s
Count of elements : 1554
Stream size : 41.1 KiB (0%)
Title : [email protected]
Language : English
Default : Yes
Forced : No

Text #2
ID : 4
Format : UTF-8
Codec ID : S_TEXT/UTF8
Codec ID/Info : UTF-8 Plain Text
Duration : 2 h 24 min
Bit rate : 37 b/s
Count of elements : 1555
Stream size : 39.9 KiB (0%)
Title : [email protected]
Language : English
Default : No
Forced : No

Text #3
ID : 5
Format : UTF-8
Codec ID : S_TEXT/UTF8
Codec ID/Info : UTF-8 Plain Text
Duration : 2 h 25 min
Bit rate : 62 b/s
Count of elements : 1603
Stream size : 66.3 KiB (0%)
Title : [email protected]
Language : Arabic
Default : No
Forced : No

Text #4
ID : 6
Format : UTF-8
Codec ID : S_TEXT/UTF8
Codec ID/Info : UTF-8 Plain Text
Duration : 2 h 24 min
Bit rate : 39 b/s
Count of elements : 1556
Stream size : 41.9 KiB (0%)
Title : [email protected]
Language : fil
Default : No
Forced : No

Text #5
ID : 7
Format : UTF-8
Codec ID : S_TEXT/UTF8
Codec ID/Info : UTF-8 Plain Text
Duration : 2 h 32 min
Bit rate : 136 b/s
Count of elements : 2207
Stream size : 152 KiB (0%)
Title : [email protected]
Language : Hindi
Default : No
Forced : No

Text #6
ID : 8
Format : UTF-8
Codec ID : S_TEXT/UTF8
Codec ID/Info : UTF-8 Plain Text
Duration : 2 h 34 min
Bit rate : 52 b/s
Count of elements : 2173
Stream size : 59.2 KiB (0%)
Title : [email protected]
Language : Indonesian
Default : No
Forced : No

Text #7
ID : 9
Format : UTF-8
Codec ID : S_TEXT/UTF8
Codec ID/Info : UTF-8 Plain Text
Duration : 2 h 24 min
Bit rate : 35 b/s
Count of elements : 1548
Stream size : 37.6 KiB (0%)
Title : [email protected]
Language : Malay
Default : No
Forced : No

Text #8
ID : 10
Format : UTF-8
Codec ID : S_TEXT/UTF8
Codec ID/Info : UTF-8 Plain Text
Duration : 2 h 24 min
Bit rate : 37 b/s
Count of elements : 1494
Stream size : 40.0 KiB (0%)
Title : [email protected]
Language : Portuguese
Default : No
Forced : No

Text #9
ID : 11
Format : UTF-8
Codec ID : S_TEXT/UTF8
Codec ID/Info : UTF-8 Plain Text
Duration : 2 h 24 min
Bit rate : 65 b/s
Count of elements : 1578
Stream size : 69.5 KiB (0%)
Title : [email protected]
Language : Russian
Default : No
Forced : No

Text #10
ID : 12
Format : UTF-8
Codec ID : S_TEXT/UTF8
Codec ID/Info : UTF-8 Plain Text
Duration : 2 h 24 min
Bit rate : 143 b/s
Count of elements : 1562
Stream size : 151 KiB (0%)
Title : [email protected]
Language : Tamil
Default : No
Forced : No

Text #11
ID : 13
Format : UTF-8
Codec ID : S_TEXT/UTF8
Codec ID/Info : UTF-8 Plain Text
Duration : 2 h 24 min
Bit rate : 114 b/s
Count of elements : 1572
Stream size : 121 KiB (0%)
Title : [email protected]
Language : Telugu
Default : No
Forced : No

Text #12
ID : 14
Format : UTF-8
Codec ID : S_TEXT/UTF8
Codec ID/Info : UTF-8 Plain Text
Duration : 2 h 23 min
Bit rate : 96 b/s
Count of elements : 1491
Stream size : 102 KiB (0%)
Title : [email protected]
Language : Thai
Default : No
Forced : No

Text #13
ID : 15
Format : UTF-8
Codec ID : S_TEXT/UTF8
Codec ID/Info : UTF-8 Plain Text
Duration : 2 h 24 min
Bit rate : 42 b/s
Count of elements : 1682
Stream size : 45.4 KiB (0%)
Title : [email protected]
Language : Chinese
Default : No
Forced : No

Text #14
ID : 16
Format : UTF-8
Codec ID : S_TEXT/UTF8
Codec ID/Info : UTF-8 Plain Text
Duration : 2 h 24 min
Bit rate : 36 b/s
Count of elements : 1537
Stream size : 38.1 KiB (0%)
Title : [email protected]
Language : Chinese
Default : No
Forced : No

Ae Dil Hai Mushkil Screenshots:




































WEB-DL Download Link:

Downlaod 1080p – 7.31GB

WEB-RIP Download Link:

Download 1080p – 3.07GB

Download 720p – 1.49GB

Download 360p – 432MB

For All Hindi Movies Click Here

Facebook Comments Box

Duration: 158 min

Quality: WEB-DL

Release:

IMDb: 5.8

Ae Dil Hai Mushkil 2016 AMZN WEB-DL MSub
Ae Dil Hai Mushkil 2016 AMZN WEB-DL MSub
Ae Dil Hai Mushkil 2016 AMZN WEB-DL MSub