0
1 Star2 Stars3 Stars4 Stars5 Stars (No Ratings Yet)
Loading...

Anjaam Pathiraa 2020 Malayalam ESub

Anjaam Pathiraa 2020

Midnight Murders (2020) Crime, Mystery, Thriller | 144min | January 17, 2020 (United States) 8.0
Director: Midhun Manuel ThomasWriter: Midhun Manuel ThomasStars: Kunchacko Boban, Jinu Joseph, Unnimaya PrasadSummary: The police are on the trail of a serial killer, but with the victims being fellow officers, will they be able to catch the killer and solve the case in time?

Photos


See all photos >>

 

Anjaam Pathiraa

Media-Info Anjaam Pathiraa

Anjaam Pathiraa 2020 Malayalam 1080p WEB-DL AAC2.0 H264 ESub – WiKi-PiKi.mkv
Format : Matroska
Format version : Version 4
File size : 8.14 GiB
Duration : 2 h 22 min
Overall bit rate : 8 155 kb/s
Movie name : GoldminesHD.Club
Encoded date : UTC 2021-09-17 04:33:45
Writing application : mkvmerge v61.0.0 (‘So’) 64-bit
Writing library : libebml v1.4.2 + libmatroska v1.6.4

Video
ID : 1
Format : AVC
Format/Info : Advanced Video Codec
Format profile : [email protected]
Format settings : CABAC / 4 Ref Frames
Format settings, CABAC : Yes
Format settings, Reference frames : 4 frames
Codec ID : V_MPEG4/ISO/AVC
Duration : 2 h 22 min
Bit rate : 8 000 kb/s
Width : 1 920 pixels
Height : 816 pixels
Display aspect ratio : 2.35:1
Frame rate mode : Constant
Frame rate : 25.000 FPS
Color space : YUV
Chroma subsampling : 4:2:0
Bit depth : 8 bits
Scan type : Progressive
Bits/(Pixel*Frame) : 0.204
Stream size : 7.95 GiB (98%)
Title : [email protected]
Writing library : x264 core 138
Encoding settings : cabac=1 / ref=4 / deblock=1:0:0 / analyse=0x3:0x133 / me=umh / subme=9 / psy=1 / psy_rd=1.00:0.00 / mixed_ref=1 / me_range=16 / chroma_me=1 / trellis=2 / 8x8dct=1 / cqm=0 / deadzone=21,11 / fast_pskip=1 / chroma_qp_offset=-2 / threads=4 / lookahead_threads=1 / sliced_threads=0 / nr=0 / decimate=1 / interlaced=0 / bluray_compat=0 / constrained_intra=0 / bframes=3 / b_pyramid=0 / b_adapt=2 / b_bias=0 / direct=3 / weightb=1 / open_gop=0 / weightp=2 / keyint=50 / keyint_min=5 / scenecut=0 / intra_refresh=0 / rc_lookahead=50 / rc=abr / mbtree=1 / bitrate=8000 / ratetol=1.0 / qcomp=0.60 / qpmin=0 / qpmax=69 / qpstep=4 / vbv_maxrate=11200 / vbv_bufsize=16000 / nal_hrd=none / filler=0 / ip_ratio=1.40 / aq=1:1.00
Default : Yes
Forced : No

Audio
ID : 2
Format : AAC LC
Format/Info : Advanced Audio Codec Low Complexity
Codec ID : A_AAC-2
Duration : 2 h 22 min
Bit rate : 192 kb/s
Channel(s) : 2 channels
Channel layout : L R
Sampling rate : 48.0 kHz
Frame rate : 46.875 FPS (1024 SPF)
Compression mode : Lossy
Stream size : 196 MiB (2%)
Title : [email protected]
Language : Malayalam
Default : Yes
Forced : No

Text
ID : 3
Format : UTF-8
Codec ID : S_TEXT/UTF8
Codec ID/Info : UTF-8 Plain Text
Duration : 2 h 17 min
Bit rate : 69 b/s
Count of elements : 1943
Stream size : 70.1 KiB (0%)
Title : [email protected]
Language : English
Default : Yes
Forced : No

Anjaam Pathiraa Screenshots

























Download 1080p – 8.14GB

Download 720p – 2.48GB

For All Malayalam Movies Click Here

Facebook Comments Box
Anjaam Pathiraa 2020 Malayalam ESub
Anjaam Pathiraa 2020 Malayalam ESub
Anjaam Pathiraa 2020 Malayalam ESub