0
1 Star2 Stars3 Stars4 Stars5 Stars (No Ratings Yet)
Loading...

Ankahi Kahaniya 2021 NF WEB-DL

Ankahi Kahaniya

دروب الشوق والحب Drama, Romance | 110min | September 17, 2021 (United States) 7.0
Director: Abhishek Chaubey, Saket Chaudhary, Ashwiny Iyer TiwariWriter: Piyush Gupta, Hussain Haidry, Shreyas JainStars: Abhishek Banerjee, T.J. Bhanu, Nikhil DwivediSummary: Cities are a hard place to live in. Especially when you're not in love. Or looking for it or losing it. You crave for a life of abundance, but love tends to heal wounds which helps you go that little further to get what you want. But it also has the power to take you down. Either way it's an emotion that always mesmerizes us and hardly ever let's go. Three acclaimed directors of Bollywood, take us through winding paths of longing and love.

Photos


See all photos >>

Ankahi Kahaniya

Media-Info Ankahi Kahaniya

Ankahi.Kahaniya.2021.1080p.NF.WEB-DL.DD+5.1.Atmos.x264-Telly.mkv
Format : Matroska
Format version : Version 4
File size : 8.43 GiB
Duration : 1 h 50 min
Overall bit rate mode : Variable
Overall bit rate : 10.9 Mb/s
Movie name : Telly
Encoded date : UTC 2021-09-17 07:16:41
Writing application : mkvmerge v59.0.0 (‘Shining Star’) 64-bit
Writing library : libebml v1.4.2 + libmatroska v1.6.4

Video
ID : 1
Format : AVC
Format/Info : Advanced Video Codec
Format profile : [email protected]
Format settings : CABAC / 4 Ref Frames
Format settings, CABAC : Yes
Format settings, Reference frames : 4 frames
Codec ID : V_MPEG4/ISO/AVC
Duration : 1 h 50 min
Bit rate mode : Variable
Bit rate : 6 939 kb/s
Maximum bit rate : 20.0 Mb/s
Width : 1 920 pixels
Height : 1 080 pixels
Display aspect ratio : 16:9
Frame rate mode : Constant
Frame rate : 25.000 FPS
Color space : YUV
Chroma subsampling : 4:2:0
Bit depth : 8 bits
Scan type : Progressive
Bits/(Pixel*Frame) : 0.134
Stream size : 5.36 GiB (64%)
Writing library : x264 core 148 r2722 1b0121b
Encoding settings : cabac=1 / ref=4 / deblock=1:0:0 / analyse=0x3:0x111 / me=umh / subme=10 / psy=1 / psy_rd=1.00:0.00 / mixed_ref=1 / me_range=120 / chroma_me=1 / trellis=2 / 8x8dct=1 / cqm=0 / deadzone=21,11 / fast_pskip=1 / chroma_qp_offset=-2 / threads=8 / lookahead_threads=2 / sliced_threads=0 / nr=0 / decimate=1 / interlaced=0 / bluray_compat=0 / stitchable=1 / constrained_intra=0 / bframes=16 / b_pyramid=2 / b_adapt=2 / b_bias=0 / direct=3 / weightb=1 / open_gop=0 / weightp=2 / keyint=250 / keyint_min=126 / scenecut=0 / intra_refresh=0 / rc_lookahead=250 / rc=crf / mbtree=1 / crf=16.0 / qcomp=0.50 / qpmin=6 / qpmax=51 / qpstep=4 / vbv_maxrate=20000 / vbv_bufsize=25000 / crf_max=0.0 / nal_hrd=vbr / filler=0 / ip_ratio=1.40 / aq=1:0.80
Default : Yes
Forced : No

Audio #1
ID : 2
Format : E-AC-3 JOC
Format/Info : Enhanced AC-3 with Joint Object Coding
Commercial name : Dolby Digital Plus with Dolby Atmos
Codec ID : A_EAC3
Duration : 1 h 50 min
Bit rate mode : Constant
Bit rate : 768 kb/s
Channel(s) : 6 channels
Channel layout : L R C LFE Ls Rs
Sampling rate : 48.0 kHz
Frame rate : 31.250 FPS (1536 SPF)
Compression mode : Lossy
Stream size : 608 MiB (7%)
Title : Hindi
Language : Hindi
Service kind : Complete Main
Default : Yes
Forced : No
Complexity index : 16
Number of dynamic objects : 15
Bed channel count : 1 channel
Bed channel configuration : LFE

Audio #2
ID : 3
Format : E-AC-3
Format/Info : Enhanced AC-3
Commercial name : Dolby Digital Plus
Codec ID : A_EAC3
Duration : 1 h 50 min
Bit rate mode : Constant
Bit rate : 640 kb/s
Channel(s) : 6 channels
Channel layout : L R C LFE Ls Rs
Sampling rate : 48.0 kHz
Frame rate : 31.250 FPS (1536 SPF)
Compression mode : Lossy
Stream size : 506 MiB (6%)
Title : Tamil
Language : Tamil
Service kind : Complete Main
Default : No
Forced : No

Audio #3
ID : 4
Format : E-AC-3
Format/Info : Enhanced AC-3
Commercial name : Dolby Digital Plus
Codec ID : A_EAC3
Duration : 1 h 50 min
Bit rate mode : Constant
Bit rate : 640 kb/s
Channel(s) : 6 channels
Channel layout : L R C LFE Ls Rs
Sampling rate : 48.0 kHz
Frame rate : 31.250 FPS (1536 SPF)
Compression mode : Lossy
Stream size : 506 MiB (6%)
Title : Telugu
Language : Telugu
Service kind : Complete Main
Default : No
Forced : No

Audio #4
ID : 5
Format : E-AC-3
Format/Info : Enhanced AC-3
Commercial name : Dolby Digital Plus
Codec ID : A_EAC3
Duration : 1 h 50 min
Bit rate mode : Constant
Bit rate : 640 kb/s
Channel(s) : 6 channels
Channel layout : L R C LFE Ls Rs
Sampling rate : 48.0 kHz
Frame rate : 31.250 FPS (1536 SPF)
Compression mode : Lossy
Stream size : 506 MiB (6%)
Title : English
Language : English
Service kind : Complete Main
Default : No
Forced : No

Audio #5
ID : 6
Format : E-AC-3
Format/Info : Enhanced AC-3
Commercial name : Dolby Digital Plus
Codec ID : A_EAC3
Duration : 1 h 50 min
Bit rate mode : Constant
Bit rate : 640 kb/s
Channel(s) : 6 channels
Channel layout : L R C LFE Ls Rs
Sampling rate : 48.0 kHz
Frame rate : 31.250 FPS (1536 SPF)
Compression mode : Lossy
Stream size : 506 MiB (6%)
Title : Brazilian Portuguese
Language : Portuguese
Service kind : Complete Main
Default : No
Forced : No

Audio #6
ID : 7
Format : E-AC-3
Format/Info : Enhanced AC-3
Commercial name : Dolby Digital Plus
Codec ID : A_EAC3
Duration : 1 h 50 min
Bit rate mode : Constant
Bit rate : 640 kb/s
Channel(s) : 6 channels
Channel layout : L R C LFE Ls Rs
Sampling rate : 48.0 kHz
Frame rate : 31.250 FPS (1536 SPF)
Compression mode : Lossy
Stream size : 506 MiB (6%)
Title : Spanish
Language : Spanish
Service kind : Complete Main
Default : No
Forced : No

Text #1
ID : 8
Format : UTF-8
Codec ID : S_TEXT/UTF8
Codec ID/Info : UTF-8 Plain Text
Duration : 1 h 49 min
Bit rate : 142 b/s
Count of elements : 1386
Stream size : 114 KiB (0%)
Title : Hindi
Language : Hindi
Default : No
Forced : No

Text #2
ID : 9
Format : UTF-8
Codec ID : S_TEXT/UTF8
Codec ID/Info : UTF-8 Plain Text
Duration : 1 h 43 min
Bit rate : 2 b/s
Count of elements : 67
Stream size : 2.01 KiB (0%)
Title : Forced
Language : Hindi
Default : No
Forced : Yes

Text #3
ID : 10
Format : UTF-8
Codec ID : S_TEXT/UTF8
Codec ID/Info : UTF-8 Plain Text
Duration : 1 h 40 min
Bit rate : 44 b/s
Count of elements : 1061
Stream size : 32.7 KiB (0%)
Title : English
Language : English
Default : No
Forced : No

Text #4
ID : 11
Format : UTF-8
Codec ID : S_TEXT/UTF8
Codec ID/Info : UTF-8 Plain Text
Duration : 1 h 40 min
Bit rate : 44 b/s
Count of elements : 1061
Stream size : 32.7 KiB (0%)
Title : English
Language : English
Default : No
Forced : No

Text #5
ID : 12
Format : UTF-8
Codec ID : S_TEXT/UTF8
Codec ID/Info : UTF-8 Plain Text
Duration : 1 h 49 min
Bit rate : 68 b/s
Count of elements : 1068
Stream size : 55.0 KiB (0%)
Title : Arabic
Language : Arabic
Default : No
Forced : No

Text #6
ID : 13
Format : UTF-8
Codec ID : S_TEXT/UTF8
Codec ID/Info : UTF-8 Plain Text
Duration : 1 h 49 min
Bit rate : 41 b/s
Count of elements : 1082
Stream size : 33.4 KiB (0%)
Title : Chinese Simplified
Language : Chinese
Default : No
Forced : No

Text #7
ID : 14
Format : UTF-8
Codec ID : S_TEXT/UTF8
Codec ID/Info : UTF-8 Plain Text
Duration : 1 h 49 min
Bit rate : 42 b/s
Count of elements : 1082
Stream size : 34.1 KiB (0%)
Title : Chinese Traditional
Language : Chinese
Default : No
Forced : No

Ankahi Kahaniya

Text #8
ID : 15
Format : UTF-8
Codec ID : S_TEXT/UTF8
Codec ID/Info : UTF-8 Plain Text
Duration : 1 h 49 min
Bit rate : 38 b/s
Count of elements : 1066
Stream size : 30.7 KiB (0%)
Title : Croatian
Language : Croatian
Default : No
Forced : No

Text #9
ID : 16
Format : UTF-8
Codec ID : S_TEXT/UTF8
Codec ID/Info : UTF-8 Plain Text
Duration : 1 h 49 min
Bit rate : 38 b/s
Count of elements : 1068
Stream size : 30.5 KiB (0%)
Title : Czech
Language : Czech
Default : No
Forced : No

Text #10
ID : 17
Format : UTF-8
Codec ID : S_TEXT/UTF8
Codec ID/Info : UTF-8 Plain Text
Duration : 1 h 49 min
Bit rate : 39 b/s
Count of elements : 1067
Stream size : 31.8 KiB (0%)
Title : Danish
Language : Danish
Default : No
Forced : No

Text #11
ID : 18
Format : UTF-8
Codec ID : S_TEXT/UTF8
Codec ID/Info : UTF-8 Plain Text
Duration : 1 h 49 min
Bit rate : 38 b/s
Count of elements : 1043
Stream size : 31.1 KiB (0%)
Title : Dutch
Language : Dutch
Default : No
Forced : No

Ankahi Kahaniya Screenshots:

Ankahi Kahaniya

Ankahi Kahaniya

Ankahi Kahaniya

Ankahi Kahaniya

Download 1080p – 8.43GB

Download 720p – 4.34GB

For All Multi Audio Movie Click Here

Facebook Comments Box
Ankahi Kahaniya 2021 NF WEB-DL
Ankahi Kahaniya 2021 NF WEB-DL
Ankahi Kahaniya 2021 NF WEB-DL
Ankahi Kahaniya 2021 NF WEB-DL
Ankahi Kahaniya 2021 NF WEB-DL
Ankahi Kahaniya 2021 NF WEB-DL
Ankahi Kahaniya 2021 NF WEB-DL
Ankahi Kahaniya 2021 NF WEB-DL