0
1 Star2 Stars3 Stars4 Stars5 Stars (No Ratings Yet)
Loading...

Ashani Sanket 1973 AMZN WEB-DL

Ashani Sanket

Ferner Donner Drama | 101min | October 26, 1975 (United States) 8.1
Director: Satyajit RayWriter: Bibhutibhushan Bandyopadhyay, Satyajit RayStars: Soumitra Chatterjee, Bobita, Sandhya RoySummary: Gangacharan is the new Brahmin of a village, where he assumes various duties: teaching, organizing religious events, and trying to prevent epidemics. But in that year 1943, war is raging (as reminded by the planes occasionally heard flying over the countryside), and a major famine is under way. As food shortages reach catastrophic proportions, Gangacharan attempts to preserve his privileged situation, while his generous wife, Ananga, conversely tries to help and support the community. —Eduardo Casais <[email protected]>

Photos


See all photos >>

Ashani Sanket

Media-Info Ashani Sanket

Ashani Sanket 1973 Bengali 1080p AMZN WEB-DL DDP2.0 H264 ESub – WiKi-PiKi.mkv
Format : Matroska
Format version : Version 4
File size : 4.41 GiB
Duration : 1 h 37 min
Overall bit rate : 6 482 kb/s
Movie name : GoldminesHD.Club
Encoded date : UTC 2021-09-23 03:43:54
Writing application : mkvmerge v56.1.0 (‘My Friend’) 64-bit
Writing library : libebml v1.4.2 + libmatroska v1.6.4

Video
ID : 1
Format : AVC
Format/Info : Advanced Video Codec
Format profile : [email protected]
Format settings : CABAC / 4 Ref Frames
Format settings, CABAC : Yes
Format settings, Reference frames : 4 frames
Codec ID : V_MPEG4/ISO/AVC
Duration : 1 h 37 min
Bit rate : 6 256 kb/s
Width : 1 920 pixels
Height : 1 080 pixels
Display aspect ratio : 16:9
Frame rate mode : Constant
Frame rate : 25.000 FPS
Color space : YUV
Chroma subsampling : 4:2:0
Bit depth : 8 bits
Scan type : Progressive
Bits/(Pixel*Frame) : 0.121
Stream size : 4.25 GiB (97%)
Title : [email protected]
Default : Yes
Forced : No
Color range : Limited
Color primaries : BT.709
Transfer characteristics : BT.709
Matrix coefficients : BT.709

Audio
ID : 2
Format : E-AC-3
Format/Info : Enhanced AC-3
Commercial name : Dolby Digital Plus
Codec ID : A_EAC3
Duration : 1 h 37 min
Bit rate mode : Constant
Bit rate : 224 kb/s
Channel(s) : 2 channels
Channel layout : L R
Sampling rate : 48.0 kHz
Frame rate : 31.250 FPS (1536 SPF)
Compression mode : Lossy
Stream size : 156 MiB (3%)
Title : [email protected]
Language : Bengali
Service kind : Complete Main
Default : Yes
Forced : No

Text
ID : 3
Format : UTF-8
Codec ID : S_TEXT/UTF8
Codec ID/Info : UTF-8 Plain Text
Duration : 1 h 32 min
Bit rate : 53 b/s
Count of elements : 1089
Stream size : 36.1 KiB (0%)
Title : [email protected]
Language : English
Default : Yes
Forced : No

Ashani Sanket Screenshots:












Download 1080p – 4.41GB

For All Bengali Movies Click Here

Facebook Comments Box

Duration: 101 min

Quality: WEB-DL

Release:

IMDb: 8.1

Ashani Sanket 1973 AMZN WEB-DL