0
1 Star2 Stars3 Stars4 Stars5 Stars (No Ratings Yet)
Loading...

Aurangzeb 2013 AMZN WEB-DL

Aurangzeb

Аурангзеб Action, Drama, Thriller | 137min | May 17, 2013 (United States) 6.5
Director: Atul SabharwalWriter: Atul SabharwalStars: Arjun Kapoor, Sasha Aagha, Prithviraj SukumaranSummary: Gurgaon is the most modern boom-town of "India Shining", the new frontier to be conquered by those who understand real estate. This city rose from a small town to a boom town satellite city in just fifteen years. However the law and order is yet to catch up. A family of Policemen - A family of Gangsters - Under the guise of a respected citizen, Yashwardhan (Jackie Shroff) runs a parallel world - a world, where he is the Emperor. To bring down a criminal - the law will have to now think like a criminal. When Vishal (Arjun Kapoor) is planted in Yashwardhan's world in place of Ajay (Arjun Kapoor), the lawmakers (Rishi Kapoor and Prithviraj) roll the dice and a sequence of events unravel - something much more than what Vishal bargained for, as he finds himself in a predicament that puts him to the test. Aurangzeb is all about a world where Kingship knows no Kinship and where there can be only one Emperor. —Official Source

Photos


See all photos >>

Aurangzeb 2013

MediaInfo Aurangzeb

 2013 Hindi 1080p AMZN WEB-DL DDP5.1 H264 MSub – WiKi-PiKi.mkv
Format : Matroska
Format version : Version 4
File size : 8.07 GiB
Duration : 2 h 17 min
Overall bit rate : 8 406 kb/s
Movie name : GoldminesHD.Club
Encoded date : UTC 2021-09-07 07:32:08
Writing application : mkvmerge v56.1.0 (‘My Friend’) 64-bit
Writing library : libebml v1.4.2 + libmatroska v1.6.4
Attachments : WiKi-PiKi.jpg

Video
ID : 1
Format : AVC
Format/Info : Advanced Video Codec
Format profile : [email protected]
Format settings : CABAC / 4 Ref Frames
Format settings, CABAC : Yes
Format settings, Reference frames : 4 frames
Codec ID : V_MPEG4/ISO/AVC
Duration : 2 h 17 min
Bit rate : 7 764 kb/s
Width : 1 920 pixels
Height : 816 pixels
Display aspect ratio : 2.35:1
Frame rate mode : Constant
Frame rate : 23.976 (24000/1001) FPS
Color space : YUV
Chroma subsampling : 4:2:0
Bit depth : 8 bits
Scan type : Progressive
Bits/(Pixel*Frame) : 0.207
Stream size : 7.45 GiB (92%)
Title : [email protected]
Default : Yes
Forced : No
Color range : Limited
Color primaries : BT.709
Transfer characteristics : BT.709
Matrix coefficients : BT.709

Audio
ID : 2
Format : E-AC-3
Format/Info : Enhanced AC-3
Commercial name : Dolby Digital Plus
Codec ID : A_EAC3
Duration : 2 h 17 min
Bit rate mode : Constant
Bit rate : 640 kb/s
Channel(s) : 6 channels
Channel layout : L R C LFE Ls Rs
Sampling rate : 48.0 kHz
Frame rate : 31.250 FPS (1536 SPF)
Compression mode : Lossy
Delay relative to video : -83 ms
Stream size : 629 MiB (8%)
Title : [email protected]
Language : Hindi
Service kind : Complete Main
Default : Yes
Forced : No

Text #1
ID : 3
Format : UTF-8
Codec ID : S_TEXT/UTF8
Codec ID/Info : UTF-8 Plain Text
Duration : 2 h 12 min
Bit rate : 49 b/s
Count of elements : 1495
Stream size : 47.6 KiB (0%)
Title : [email protected]
Language : English
Default : Yes
Forced : No

Text #2
ID : 4
Format : UTF-8
Codec ID : S_TEXT/UTF8
Codec ID/Info : UTF-8 Plain Text
Duration : 2 h 13 min
Bit rate : 155 b/s
Count of elements : 1566
Stream size : 152 KiB (0%)
Title : [email protected]
Language : Tamil
Default : No
Forced : No

Text #3
ID : 5
Format : UTF-8
Codec ID : S_TEXT/UTF8
Codec ID/Info : UTF-8 Plain Text
Duration : 2 h 13 min
Bit rate : 132 b/s
Count of elements : 1570
Stream size : 130 KiB (0%)
Title : [email protected]
Language : Telugu
Default : No
Forced : No

Text #4
ID : 6
Format : UTF-8
Codec ID : S_TEXT/UTF8
Codec ID/Info : UTF-8 Plain Text
Duration : 2 h 13 min
Bit rate : 115 b/s
Count of elements : 1562
Stream size : 113 KiB (0%)
Title : [email protected]
Language : Thai
Default : No
Forced : No

Text #5
ID : 7
Format : UTF-8
Codec ID : S_TEXT/UTF8
Codec ID/Info : UTF-8 Plain Text
Duration : 2 h 12 min
Bit rate : 44 b/s
Count of elements : 1495
Stream size : 43.7 KiB (0%)
Title : [email protected]
Language : Chinese
Default : No
Forced : No

Aurangzeb Screenshots:

































Download 1080p – 8.07GB

For All Hindi Movies Click Here

Facebook Comments Box

Duration: 137 min

Quality: WEB-DL

Release:

IMDb: 6.5

Aurangzeb 2013 AMZN WEB-DL
Aurangzeb 2013 AMZN WEB-DL
Aurangzeb 2013 AMZN WEB-DL
Aurangzeb 2013 AMZN WEB-DL
Aurangzeb 2013 AMZN WEB-DL
Aurangzeb 2013 AMZN WEB-DL
Aurangzeb 2013 AMZN WEB-DL
Aurangzeb 2013 AMZN WEB-DL
Aurangzeb 2013 AMZN WEB-DL
Aurangzeb 2013 AMZN WEB-DL