0
1 Star2 Stars3 Stars4 Stars5 Stars (No Ratings Yet)
Loading...

Avane Srimannarayana 2019 Hindi

Avane Srimannarayana

Его зовут Шриманнараяна Action, Adventure, Comedy, Drama, Fantasy | 186min | December 27, 2019 (India) 7.9
Director: Sachin Ravi, SachinWriter: Chandrajith, Ganesh Hegde, Abhijit MaheshStars: Rakshit Shetty, Shanvi Srivastava, Achyuth KumarSummary: Story of Corrupt Cop who is intelligent and brighter than normal people.The character is said to have the features of Sherlock holmes and Jack Sparrow combined.The story runs through the place called Amaravathi.This is a period RomCom with plenty of Action Sequences.Its a fictional story taking place in a world created by 7 Writers including Rakshith Shetty. —skdoosh

Photos


See all photos >>

Avane Srimannarayana

Media-Info Avane Srimannarayana

Avane.Srimannarayana.2019.Hindi.1080p.HYBRID.WEB-DL.AAC.2.0.H.264-Telly.mkv
Format : Matroska
Format version : Version 4
File size : 11.5 GiB
Duration : 3 h 3 min
Overall bit rate : 8 932 kb/s
Movie name : Telly
Encoded date : UTC 2021-09-26 17:18:57
Writing application : mkvmerge v61.0.0 (‘So’) 64-bit
Writing library : libebml v1.4.2 + libmatroska v1.6.4

Video
ID : 1
Format : AVC
Format/Info : Advanced Video Codec
Format profile : [email protected]
Format settings : CABAC / 4 Ref Frames
Format settings, CABAC : Yes
Format settings, Reference frames : 4 frames
Codec ID : V_MPEG4/ISO/AVC
Duration : 3 h 3 min
Bit rate mode : Constant
Bit rate : 8 737 kb/s
Nominal bit rate : 10 000 kb/s
Width : 1 920 pixels
Height : 800 pixels
Display aspect ratio : 2.40:1
Frame rate mode : Constant
Frame rate : 24.000 FPS
Color space : YUV
Chroma subsampling : 4:2:0
Bit depth : 8 bits
Scan type : Progressive
Bits/(Pixel*Frame) : 0.237
Stream size : 11.2 GiB (98%)
Default : Yes
Forced : No
Color range : Limited
Color primaries : BT.709
Transfer characteristics : BT.709
Matrix coefficients : BT.709

Audio
ID : 2
Format : AAC LC
Format/Info : Advanced Audio Codec Low Complexity
Codec ID : A_AAC-2
Duration : 3 h 3 min
Bit rate : 192 kb/s
Channel(s) : 2 channels
Channel layout : L R
Sampling rate : 48.0 kHz
Frame rate : 46.875 FPS (1024 SPF)
Compression mode : Lossy
Stream size : 252 MiB (2%)
Title : Hindi
Language : Hindi
Default : Yes
Forced : No

Text #1
ID : 3
Format : UTF-8
Codec ID : S_TEXT/UTF8
Codec ID/Info : UTF-8 Plain Text
Duration : 3 h 2 min
Bit rate : 59 b/s
Count of elements : 2079
Stream size : 78.8 KiB (0%)
Title : English [SDH]
Language : English
Default : No
Forced : No

Text #2
ID : 4
Format : UTF-8
Codec ID : S_TEXT/UTF8
Codec ID/Info : UTF-8 Plain Text
Duration : 3 h 2 min
Bit rate : 58 b/s
Count of elements : 2072
Stream size : 78.1 KiB (0%)
Title : English
Language : English
Default : No
Forced : No

Text #3
ID : 5
Format : UTF-8
Codec ID : S_TEXT/UTF8
Codec ID/Info : UTF-8 Plain Text
Duration : 3 h 2 min
Bit rate : 151 b/s
Count of elements : 2113
Stream size : 203 KiB (0%)
Title : Tamil
Language : Tamil
Default : No
Forced : No

Text #4
ID : 6
Format : UTF-8
Codec ID : S_TEXT/UTF8
Codec ID/Info : UTF-8 Plain Text
Duration : 3 h 2 min
Bit rate : 135 b/s
Count of elements : 2094
Stream size : 181 KiB (0%)
Title : Telugu
Language : Telugu
Default : No
Forced : No

Text #5
ID : 7
Format : UTF-8
Codec ID : S_TEXT/UTF8
Codec ID/Info : UTF-8 Plain Text
Duration : 3 h 2 min
Bit rate : 127 b/s
Count of elements : 2137
Stream size : 170 KiB (0%)
Title : Thai
Language : Thai
Default : No
Forced : No

Avane Srimannarayana Screenshots:

Avane Srimannarayana

Avane Srimannarayana

Avane Srimannarayana

Avane Srimannarayana

Avane Srimannarayana

Download 1080p – 11.47GB

Download 1080p HEVC – 5.49GB

For All Hindi Movies Click Here

Facebook Comments Box

Duration: 186 min

Quality: WEB-DL

Release:

IMDb: 7.9

Avane Srimannarayana 2019 Hindi