0
1 Star2 Stars3 Stars4 Stars5 Stars (No Ratings Yet)
Loading...

Bandhan 2004 AMZN WEB-DL

Bandhan 2004

Bandhan (2004) Drama, Romance | 145min | 2004 (India) 6.9
Director: Rabi KinagiStars: Jeet, Koyel Mallick, Anshu BachSummary: A man visits his estranged father-in-law and finds himself falling in love with his late wife's twin sister, much to the disapproval of her father.

Photos


See all photos >>

Bandhan 2004

Media-Info Bandhan 2004

Bandhan 2004 Bengali 1080p AMZN WEB-DL DDP2.0 H264 – WiKi-PiKi.mkv
Format : Matroska
Format version : Version 4
File size : 13.5 GiB
Duration : 2 h 17 min
Overall bit rate : 14.0 Mb/s
Movie name : GoldminesHD.Club
Encoded date : UTC 2021-10-06 08:36:21
Writing application : mkvmerge v56.1.0 (‘My Friend’) 64-bit
Writing library : libebml v1.4.2 + libmatroska v1.6.4

Video
ID : 1
Format : AVC
Format/Info : Advanced Video Codec
Format profile : [email protected]
Format settings : CABAC / 4 Ref Frames
Format settings, CABAC : Yes
Format settings, Reference frames : 4 frames
Codec ID : V_MPEG4/ISO/AVC
Duration : 2 h 17 min
Bit rate : 13.7 Mb/s
Width : 1 920 pixels
Height : 816 pixels
Display aspect ratio : 2.35:1
Frame rate mode : Constant
Frame rate : 24.000 FPS
Color space : YUV
Chroma subsampling : 4:2:0
Bit depth : 8 bits
Scan type : Progressive
Bits/(Pixel*Frame) : 0.366
Stream size : 13.2 GiB (98%)
Title : [email protected]
Default : Yes
Forced : No
Color range : Limited
Color primaries : BT.709
Transfer characteristics : BT.709
Matrix coefficients : BT.709

Bandhan 2004

Audio
ID : 2
Format : E-AC-3
Format/Info : Enhanced AC-3
Commercial name : Dolby Digital Plus
Codec ID : A_EAC3
Duration : 2 h 17 min
Bit rate mode : Constant
Bit rate : 224 kb/s
Channel(s) : 2 channels
Channel layout : L R
Sampling rate : 48.0 kHz
Frame rate : 31.250 FPS (1536 SPF)
Compression mode : Lossy
Delay relative to video : -83 ms
Stream size : 221 MiB (2%)
Title : [email protected]
Language : Bengali
Service kind : Complete Main
Default : Yes
Forced : No

Bandhan 2004 Screenshots:
























Drive Sharer Link

AMZN WEB-DL

Download 1080p – 13.46GB

WEB-DL

Download 1080p – 6.83 GB

Download 720p – 2.85 GB

For All Bengali Movies Click Here

Facebook Comments Box

Views: 236

Genre: DramaRomance

Director:

Actors: , ,

Country:

Duration: 145 min

Quality: WEB-DL

Release:

IMDb: 6.9