0
1 Star2 Stars3 Stars4 Stars5 Stars (No Ratings Yet)
Loading...

Bell Bottom 2021 AMZN WEB-DL

Bell Bottom 2021

Bell Bottom Action, Thriller | 123min | August 19, 2021 (United States) 6.5
Director: Ranjit TewariWriter: Aseem Arrora, Parveez Sheikh, Vashu BhagnaniStars: Akshay Kumar, Huma Qureshi, Vaani KapoorSummary: Akshay Kumar plays a Research and Analysis Wing (RAW) agent in this espionage thriller, inspired by true events. The story follows this star undercover agent who goes by the code name 'Bellbottom'. After a plane is hijacked and lands in Amritsar, the seventh hijacking incident in five years, he is brought in to save the day. Akshay's character plans a daring covert operation to rescue 210 hostages and neutralise four hijackers. Vaani Kapoor plays his wife while Huma Qureshi features as one of his team members. Lara Dutta looks almost unrecognisable as former prime minister Indira Gandhi.

Photos


See all photos >>

Bell Bottom 2021

Media-Info Bell Bottom 2021

Bell.Bottom.2021.1080p.AMZN.WEB-DL.DDP5.1.H.264-Telly.mkv
Format : Matroska
Format version : Version 4
File size : 6.82 GiB
Duration : 2 h 3 min
Overall bit rate : 7 918 kb/s
Movie name : Telly
Encoded date : UTC 2021-09-15 18:33:26
Writing application : mkvmerge v59.0.0 (‘Shining Star’) 64-bit
Writing library : libebml v1.4.2 + libmatroska v1.6.4

Video
ID : 1
Format : AVC
Format/Info : Advanced Video Codec
Format profile : [email protected]
Format settings : CABAC / 4 Ref Frames
Format settings, CABAC : Yes
Format settings, Reference frames : 4 frames
Codec ID : V_MPEG4/ISO/AVC
Duration : 2 h 3 min
Bit rate mode : Constant
Bit rate : 7 276 kb/s
Nominal bit rate : 10 000 kb/s
Width : 1 920 pixels
Height : 800 pixels
Display aspect ratio : 2.40:1
Frame rate mode : Constant
Frame rate : 24.000 FPS
Color space : YUV
Chroma subsampling : 4:2:0
Bit depth : 8 bits
Scan type : Progressive
Bits/(Pixel*Frame) : 0.197
Stream size : 6.27 GiB (92%)
Default : Yes
Forced : No
Color range : Limited
Color primaries : BT.709
Transfer characteristics : BT.709
Matrix coefficients : BT.709

Audio
ID : 2
Format : E-AC-3
Format/Info : Enhanced AC-3
Commercial name : Dolby Digital Plus
Codec ID : A_EAC3
Duration : 2 h 3 min
Bit rate mode : Constant
Bit rate : 640 kb/s
Channel(s) : 6 channels
Channel layout : L R C LFE Ls Rs
Sampling rate : 48.0 kHz
Frame rate : 31.250 FPS (1536 SPF)
Compression mode : Lossy
Stream size : 565 MiB (8%)
Title : Hindi
Language : Hindi
Service kind : Complete Main
Default : No
Forced : No

Text
ID : 3
Format : UTF-8
Codec ID : S_TEXT/UTF8
Codec ID/Info : UTF-8 Plain Text
Duration : 1 h 53 min
Bit rate : 59 b/s
Count of elements : 1549
Stream size : 49.8 KiB (0%)
Title : English
Language : English
Default : No
Forced : No

Bell Bottom 2021 Screenshots:

Bell Bottom 2021

Bell Bottom 2021

Bell Bottom 2021

Bell Bottom 2021

Download 1080p – 6.82GB

Download 1080p HEVC – 3.16GB

Download 720p – 1.59GB

Download 720p HEVC – 1.51GB

For All Hindi Movies Click Here

Facebook Comments Box

Duration: 123 min

Quality: WEB-DL

Release:

IMDb: 6.8

Bell Bottom 2021 AMZN WEB-DL
Bell Bottom 2021 AMZN WEB-DL