0
1 Star2 Stars3 Stars4 Stars5 Stars (No Ratings Yet)
Loading...

Bhramam 2021 Malayalam AMZN WEB-DL

Bhramam

Thriller | 152min | October 7, 2021 (India)
Director: Ravi K. ChandranWriter: Sarath BalanStars: Prithviraj Sukumaran, Mamta Mohandas, Unni MukundanSummary: Sam, an ace pianist and a pretentious blind man accidentally gets thrown into a famous yesteryear celebrity's homicide which turns his life upside down.

Photos


See all photos >>

Bhramam

Media-Info Bhramam

Bhramam.2021.1080p.AMZN.WEB-DL.DDP5.1.H.264-Telly.mkv
Format : Matroska
Format version : Version 4
File size : 9.82 GiB
Duration : 2 h 32 min
Overall bit rate : 9 238 kb/s
Movie name : Telly
Encoded date : UTC 2021-10-06 16:38:14
Writing application : mkvmerge v59.0.0 (‘Shining Star’) 64-bit
Writing library : libebml v1.4.2 + libmatroska v1.6.4

Video
ID : 1
Format : AVC
Format/Info : Advanced Video Codec
Format profile : [email protected]
Format settings : CABAC / 4 Ref Frames
Format settings, CABAC : Yes
Format settings, ReFrames : 4 frames
Codec ID : V_MPEG4/ISO/AVC
Duration : 2 h 32 min
Bit rate mode : Constant
Bit rate : 8 596 kb/s
Nominal bit rate : 10 000 kb/s
Width : 1 920 pixels
Height : 816 pixels
Display aspect ratio : 2.35:1
Frame rate mode : Constant
Frame rate : 24.000 FPS
Color space : YUV
Chroma subsampling : 4:2:0
Bit depth : 8 bits
Scan type : Progressive
Bits/(Pixel*Frame) : 0.229
Stream size : 9.13 GiB (93%)
Default : Yes
Forced : No
Color range : Limited
Color primaries : BT.709
Transfer characteristics : BT.709
Matrix coefficients : BT.709

Audio
ID : 2
Format : E-AC-3
Format/Info : Enhanced AC-3
Commercial name : Dolby Digital Plus
Codec ID : A_EAC3
Duration : 2 h 32 min
Bit rate mode : Constant
Bit rate : 640 kb/s
Channel(s) : 6 channels
Channel layout : L R C LFE Ls Rs
Sampling rate : 48.0 kHz
Frame rate : 31.250 FPS (1536 SPF)
Compression mode : Lossy
Stream size : 696 MiB (7%)
Title : Malayalam
Language : Malayalam
Service kind : Complete Main
Default : No
Forced : No

Text #1
ID : 3
Format : UTF-8
Codec ID : S_TEXT/UTF8
Codec ID/Info : UTF-8 Plain Text
Duration : 2 h 25 min
Bit rate : 51 b/s
Count of elements : 2114
Stream size : 55.0 KiB (0%)
Title : English [SDH]
Language : English
Default : No
Forced : No

Text #2
ID : 4
Format : UTF-8
Codec ID : S_TEXT/UTF8
Codec ID/Info : UTF-8 Plain Text
Duration : 2 h 25 min
Bit rate : 51 b/s
Count of elements : 2101
Stream size : 54.7 KiB (0%)
Title : English
Language : English
Default : No
Forced : No

Bhramam Screenshots:

BhramamBhramam

Bhramam

Download 1080p – 9.82GB

Download 1080p HEVC – 3.67GB

Download 720p – 4.44GB

Download 720p HEVC – 1.75GB

For All Malayalam Movies Click Here

Facebook Comments Box

Duration: N/A

Quality: WEB-DL

Release:

IMDb: N/A