0
1 Star2 Stars3 Stars4 Stars5 Stars (No Ratings Yet)
Loading...

Bibaho Obhijaan 2019 AMZN WEB-DL

Bibaho Obhijaan

Comedy, Drama | 117min | June 21, 2019 (India) 4.2
Director: Birsa DasguptaWriter: Rohini Ghosh, Rudranil GhoshStars: Sibaji Bandyopadhyay, Priyo Banerjee, Puja BanerjeeSummary: Two newly wed men Anupam and Rajat who are established in life are henpecked husbands. They plot to flee from their wives and jobs. Due to a twist of another aspiring husband turned dacoit Bullet Singh all plans get spoiled. Finally things take a hilarious turn and end interestingly. The celebrated actors have put in their best. But Anirban Bhattacharya steals the show with his deliberately faulty speech. Some elements do not make it a family movie though. In spite of the U certificate some references do not make it suitable for children. —sgaparajita

Photos


See all photos >>

Bibaho Obhijaan

Media-Info Bibaho Obhijaan

Bibaho Obhijaan 2019 Bengali 1080p AMZN WEB-DL DDP2.0 H264 – WiKi-PiKi.mkv
Format : Matroska
Format version : Version 4
File size : 7.26 GiB
Duration : 1 h 59 min
Overall bit rate : 8 725 kb/s
Movie name : GoldminesHD.Club
Encoded date : UTC 2021-09-28 03:19:41
Writing application : mkvmerge v56.1.0 (‘My Friend’) 64-bit
Writing library : libebml v1.4.2 + libmatroska v1.6.4

Video
ID : 1
Format : AVC
Format/Info : Advanced Video Codec
Format profile : [email protected]
Format settings : CABAC / 4 Ref Frames
Format settings, CABAC : Yes
Format settings, Reference frames : 4 frames
Codec ID : V_MPEG4/ISO/AVC
Duration : 1 h 59 min
Bit rate : 8 499 kb/s
Width : 1 920 pixels
Height : 816 pixels
Display aspect ratio : 2.35:1
Frame rate mode : Constant
Frame rate : 24.000 FPS
Color space : YUV
Chroma subsampling : 4:2:0
Bit depth : 8 bits
Scan type : Progressive
Bits/(Pixel*Frame) : 0.226
Stream size : 7.07 GiB (97%)
Title : [email protected]
Default : Yes
Forced : No
Color range : Limited
Color primaries : BT.709
Transfer characteristics : BT.709
Matrix coefficients : BT.709

Audio
ID : 2
Format : E-AC-3
Format/Info : Enhanced AC-3
Commercial name : Dolby Digital Plus
Codec ID : A_EAC3
Duration : 1 h 59 min
Bit rate mode : Constant
Bit rate : 224 kb/s
Channel(s) : 2 channels
Channel layout : L R
Sampling rate : 48.0 kHz
Frame rate : 31.250 FPS (1536 SPF)
Compression mode : Lossy
Delay relative to video : -83 ms
Stream size : 191 MiB (3%)
Title : [email protected]
Language : Bengali
Service kind : Complete Main
Default : Yes
Forced : No

Bibaho Obhijaan Screenshots:




















Download 1080p – 7.26GB

For All Bengali Movies Click Here

Facebook Comments Box

Duration: 117 min

Quality: WEB-DL

Release:

IMDb: 4.2