0
1 Star2 Stars3 Stars4 Stars5 Stars (No Ratings Yet)
Loading...

Bidhilipi 1991 AMZN WEB-DL

Bidhilipi

Drama, Musical | 125min | January 1, 1991 (India) 6.9
Director: Anjan ChoudhuryStars: Ranjit Mallick, Moushumi Chatterjee, Joy SenguptaSummary: This is a family drama. A poor school master had three sons and one daughter. He was very tense for his daughter's marriage. He meets his former student Bablu, who meets Minu and falls in love with her. He wants to marry Minu. But Minu loved another boy, Alok. Bablu meets Alok and helps him by giving him a job in his office. But Alok was an uncivilised person and falls in love with Rupali, a girl in Bablu's office. Rupali was not a very nice person. Bablu warned Alok about her but Alok left Minu and started staying with Rupali. Minu was dejected and wanted revenge. She wants to transform herself and Bablu helps her to become Minoti,a modern cultured lady. Alok now wants to get Minoti but she slaps him. Minoti realizes that Bablu is the right man for her and they get married.

Photos


See all photos >>

Bidhilipi

Media-Info Bidhilipi

Bidhilipi 1991 Bengali 1080p AMZN WEB-DL DDP2.0 H264 ESub – WiKi-PiKi.mkv
Format : Matroska
Format version : Version 4
File size : 4.69 GiB
Duration : 2 h 19 min
Overall bit rate : 4 827 kb/s
Movie name : GoldminesHD.Club
Encoded date : UTC 2021-09-11 07:48:45
Writing application : mkvmerge v56.1.0 (‘My Friend’) 64-bit
Writing library : libebml v1.4.2 + libmatroska v1.6.4
Attachments : WiKi-PiKi.jpg

Video
ID : 1
Format : AVC
Format/Info : Advanced Video Codec
Format profile : [email protected]
Format settings : CABAC / 4 Ref Frames
Format settings, CABAC : Yes
Format settings, Reference frames : 4 frames
Codec ID : V_MPEG4/ISO/AVC
Duration : 2 h 19 min
Bit rate : 4 601 kb/s
Width : 1 920 pixels
Height : 1 080 pixels
Display aspect ratio : 16:9
Frame rate mode : Constant
Frame rate : 25.000 FPS
Color space : YUV
Chroma subsampling : 4:2:0
Bit depth : 8 bits
Scan type : Progressive
Bits/(Pixel*Frame) : 0.089
Stream size : 4.47 GiB (95%)
Title : [email protected]
Default : Yes
Forced : No
Color range : Limited
Color primaries : BT.709
Transfer characteristics : BT.709
Matrix coefficients : BT.709

Audio
ID : 2
Format : E-AC-3
Format/Info : Enhanced AC-3
Commercial name : Dolby Digital Plus
Codec ID : A_EAC3
Duration : 2 h 19 min
Bit rate mode : Constant
Bit rate : 224 kb/s
Channel(s) : 2 channels
Channel layout : L R
Sampling rate : 48.0 kHz
Frame rate : 31.250 FPS (1536 SPF)
Compression mode : Lossy
Stream size : 223 MiB (5%)
Title : [email protected]
Language : Bengali
Service kind : Complete Main
Default : Yes
Forced : No

Text
ID : 3
Format : UTF-8
Codec ID : S_TEXT/UTF8
Codec ID/Info : UTF-8 Plain Text
Duration : 2 h 15 min
Bit rate : 70 b/s
Count of elements : 1892
Stream size : 70.4 KiB (0%)
Title : [email protected]
Language : English
Default : Yes
Forced : No

Bidhilipi Screenshots:

























Download 1080p – 4.69GB

For All Bengali Movies Click Here

Facebook Comments Box

Views: 27

Genre: DramaMusic

Director:

Actors: ,

Country:

Duration: 125 min

Quality: WEB-DL

Release:

IMDb: 6.9

Bidhilipi 1991 AMZN WEB-DL