0
1 Star2 Stars3 Stars4 Stars5 Stars (No Ratings Yet)
Loading...

Bigg Boss Season 15 2021 WEB-DL

Bigg Boss Season 15

Bigg Boss Reality-TV | 2520min | TV Series (2006– ) 4.0
Stars: Salman Khan, Atul Kapoor, Vijay Vikram SinghSummary: Bigg Boss is a reality show based on the original Dutch Big Brother. A number of contestants (known as "housemates") live in a purpose-built house and are isolated from the rest of the world. Each week, housemates nominate two of their fellow housemates for eviction, and the housemates who receives the most nominations would face a public vote. Eventually, one housemate would leave after being "convicted" from the House. In the final week, there were five housemates remaining, and the public voted for who they wanted to win. Housemates are overseen by a mysterious person known as 'Bigg Boss', whose only presence in the house is through his voice. Written by AB THE BOSS

Photos


See all photos >>

Bigg Boss Season 15

Media-Info Bigg Boss Season 15

Bigg Boss Season 15.EP01.1080p.VOOT.WEB-DL.AAC2.0.x264-Telly.mkv
Format : Matroska
Format version : Version 4
File size : 7.53 GiB
Duration : 2 h 5 min
Overall bit rate mode : Variable
Overall bit rate : 8 587 kb/s
Movie name : Telly
Encoded date : UTC 2021-10-03 02:55:10
Writing application : mkvmerge v53.0.0 (‘Fool’s Gold’) 64-bit
Writing library : libebml v1.4.1 + libmatroska v1.6.2

Bigg Boss Season 15

Video
ID : 1
Format : AVC
Format/Info : Advanced Video Codec
Format profile : [email protected]
Format settings : CABAC / 4 Ref Frames
Format settings, CABAC : Yes
Format settings, ReFrames : 4 frames
Format settings, GOP : M=8, N=50
Codec ID : V_MPEG4/ISO/AVC
Duration : 2 h 5 min
Bit rate mode : Variable
Bit rate : 8 524 kb/s
Maximum bit rate : 11.2 Mb/s
Width : 1 920 pixels
Height : 1 080 pixels
Display aspect ratio : 16:9
Frame rate mode : Constant
Frame rate : 25.000 FPS
Color space : YUV
Chroma subsampling : 4:2:0
Bit depth : 8 bits
Scan type : Progressive
Bits/(Pixel*Frame) : 0.164
Stream size : 7.47 GiB (99%)
Default : Yes
Forced : No
Color range : Limited
Color primaries : BT.709
Transfer characteristics : BT.709
Matrix coefficients : BT.709

Audio
ID : 2
Format : AAC LC
Format/Info : Advanced Audio Codec Low Complexity
Codec ID : A_AAC-2
Duration : 2 h 5 min
Bit rate : 61.4 kb/s
Channel(s) : 2 channels
Channel layout : L R
Sampling rate : 48.0 kHz
Frame rate : 46.875 FPS (1024 SPF)
Compression mode : Lossy
Stream size : 55.1 MiB (1%)
Language : Hindi
Default : Yes
Forced : No

Bigg Boss Season 15 Screenshots:

Bigg Boss Season 15

Bigg Boss Season 15

Bigg Boss Season 15

Bigg Boss Season 15

EP – 01 Download Link:

Download 1080p – 7.53GB

Download 1080p – 2.63GB

Download 720p – 1GB

EP – 02 Download Link:

Download 1080p – 5.43GB

Download 1080p – 2.02GB

Download 720p – 792MB

EP – 03 Download Link:

Download 1080p – 3.23GB

Download 1080p – 1.15GB

EP – 04 Download Link:

Download 1080p – 1.2GB

EP – 05 Download Link:

Download 1080p – 3.38GB

Download 1080p – 1.21GB

EP – 06 Download Link:

Download 1080p – 1.34GB

Download 1080p – 3.59GB

EP – 07 Download Link:

Download 1080p – 1.3GB

Download 1080p – 3.74GB

EP – 08 Download Link:

Download 1080p – 2.01GB

Download 1080p – 5.48GB

EP – 09 Download Link:

Download 1080p – 1.77GB

Download 1080p – 5.04GB

EP – 10 Download Link:

Download 1080p – 1.29GB

Download 1080p – 3.53GB

EP – 11 Download Link:

Download 1080p – 1.51GB

Download 1080p – 4.32GB

EP – 12 Download Link:

Download 1080p – 1.29GB

Download 1080p – 3.54GB

EP – 13 Download Link:

Download 1080p – 1.46GB

Download 1080p – 4.01GB

EP – 14 Download Link:

Download 1080p – 4.28GB

EP – 15 Download Link:

Download 1080p – 1.9GB

Download 1080p – 5.21GB

EP – 16 Download Link:

Download 1080p – 2.44GB

Download 1080p – 6.64GB

EP – 17 Download Link:

Download 1080p – 1.49GB

Download 1080p – 4.05GB

EP – 18 Download Link:

Download 1080p – 1.49GB

Download 1080p – 4.04GB

For All TV-SERIES Click Here

Facebook Comments Box

Views: 273

Genre: TV-Series

Director:

Country:

Duration: 42 min

Quality: WEB-DL

Release:

IMDb: 3.8