0
1 Star2 Stars3 Stars4 Stars5 Stars (No Ratings Yet)
Loading...

Biriyaani 2019

Biriyaani

Flavors of Flesh Drama | 95min | March 26, 2021 (India) 7.4
Director: Sajin BaabuWriter: Sajin BaabuStars: Bob Felix, Mini I G, Shailaja JalaSummary: The movie chronicles the life of Khadeeja, a married muslim woman confined within the four walls of the household, forced to conceal her desires in the name of religious and societal norms. When fate brings her to an abandoned life, she chooses a different way of financially and sexually liberating herself- to be a sex worker; soon to realize that her soul is still dissatisfied. Finding a new way of hope, she decides to give back to the forces that pushed her to live an orphaned life of humiliation and misery. Shot in various regions spread across Kerala and Tamil Nadu, the movie captures the essence of life from a conservative, religious and rural background. While these places are representative of areas where such stories might still exist, the movie does not push the audience to see it as a regular event in these places. —Sajin Baabu

Photos


See all photos >>

Biriyaani

Media-Info Biriyaani

Biriyaani.2021.1080p.SSTH.WEB-DL.AAC2.0.H.264-Telly.mkv
Format : Matroska
Format version : Version 4
File size : 2.67 GiB
Duration : 1 h 35 min
Overall bit rate : 4 018 kb/s
Movie name : Telly
Encoded date : UTC 2021-09-10 15:58:39
Writing application : mkvmerge v11.0.0 (‘Alive’) 64bit
Writing library : libebml v1.3.4 + libmatroska v1.4.5

Video
ID : 1
Format : AVC
Format/Info : Advanced Video Codec
Format profile : [email protected]
Format settings : CABAC / 4 Ref Frames
Format settings, CABAC : Yes
Format settings, Reference frames : 4 frames
Codec ID : V_MPEG4/ISO/AVC
Duration : 1 h 35 min
Bit rate : 3 702 kb/s
Nominal bit rate : 4 096 kb/s
Width : 1 920 pixels
Height : 1 080 pixels
Display aspect ratio : 16:9
Frame rate mode : Constant
Frame rate : 25.000 FPS
Color space : YUV
Chroma subsampling : 4:2:0
Bit depth : 8 bits
Scan type : Progressive
Bits/(Pixel*Frame) : 0.071
Stream size : 2.46 GiB (92%)
Writing library : x264 core 161 r3027 4121277
Encoding settings : cabac=1 / ref=3 / deblock=1:0:0 / analyse=0x3:0x113 / me=hex / subme=7 / psy=1 / psy_rd=1.00:0.00 / mixed_ref=1 / me_range=16 / chroma_me=1 / trellis=1 / 8x8dct=1 / cqm=0 / deadzone=21,11 / fast_pskip=1 / chroma_qp_offset=-2 / threads=34 / lookahead_threads=5 / sliced_threads=0 / nr=0 / decimate=1 / interlaced=0 / bluray_compat=0 / constrained_intra=0 / bframes=3 / b_pyramid=2 / b_adapt=1 / b_bias=0 / direct=1 / weightb=1 / open_gop=0 / weightp=2 / keyint=125 / keyint_min=63 / scenecut=0 / intra_refresh=0 / rc_lookahead=40 / rc=cbr / mbtree=1 / bitrate=4096 / ratetol=1.0 / qcomp=0.60 / qpmin=0 / qpmax=69 / qpstep=4 / vbv_maxrate=4096 / vbv_bufsize=8192 / nal_hrd=none / filler=0 / ip_ratio=1.40 / aq=1:1.00
Default : Yes
Forced : No

Audio
ID : 2
Format : AAC LC
Format/Info : Advanced Audio Codec Low Complexity
Codec ID : A_AAC-2
Duration : 1 h 35 min
Bit rate : 313 kb/s
Channel(s) : 2 channels
Channel layout : L R
Sampling rate : 48.0 kHz
Frame rate : 46.875 FPS (1024 SPF)
Compression mode : Lossy
Delay relative to video : -21 ms
Stream size : 213 MiB (8%)
Language : English
Default : Yes
Forced : No

Text
ID : 3
Format : UTF-8
Codec ID : S_TEXT/UTF8
Codec ID/Info : UTF-8 Plain Text
Duration : 1 h 26 min
Bit rate : 31 b/s
Count of elements : 630
Stream size : 20.0 KiB (0%)
Language : English
Default : No
Forced : No

Screenshots:












Download 1080p – 2.67GB

Download 720p – 1.44GB

For All Malayalam Movies Click Here

Facebook Comments Box

Duration: 95 min

Quality: WEB-DL

Release:

IMDb: 7.3

Biriyaani 2019