0
1 Star2 Stars3 Stars4 Stars5 Stars (No Ratings Yet)
Loading...

Black Water: Abyss 2020 Dual Audio AMZN WEB-DL

Black Water

Black Water Abyss Action, Drama, Horror | 98min | August 7, 2020 (United States) 4.5
Director: Andrew TrauckiWriter: John Ridley, Sarah SmithStars: Jessica McNamee, Luke Mitchell, Amali GoldenSummary: Five friends exploring a remote cave system in Northern Australia find themselves threatened by a hungry crocodile.

Photos


See all photos >>

Black Water

Media-Info Black Water

Black.Water.Abyss.2020.1080p.AMZN.WEB-DL.HIN-ENG.DDP5.1.H.264-Telly.mkv
Format : Matroska
Format version : Version 4
File size : 6.13 GiB
Duration : 1 h 34 min
Overall bit rate : 9 290 kb/s
Movie name : Telly
Encoded date : UTC 2021-10-10 13:52:09
Writing application : mkvmerge v59.0.0 (‘Shining Star’) 64-bit
Writing library : libebml v1.4.2 + libmatroska v1.6.4

Video
ID : 1
Format : AVC
Format/Info : Advanced Video Codec
Format profile : [email protected]
Format settings : CABAC / 4 Ref Frames
Format settings, CABAC : Yes
Format settings, ReFrames : 4 frames
Codec ID : V_MPEG4/ISO/AVC
Duration : 1 h 34 min
Bit rate mode : Constant
Bit rate : 8 008 kb/s
Nominal bit rate : 10 000 kb/s
Width : 1 920 pixels
Height : 1 040 pixels
Display aspect ratio : 1.85:1
Frame rate mode : Constant
Frame rate : 25.000 FPS
Color space : YUV
Chroma subsampling : 4:2:0
Bit depth : 8 bits
Scan type : Progressive
Bits/(Pixel*Frame) : 0.160
Stream size : 5.29 GiB (86%)
Default : Yes
Forced : No
Color range : Limited
Color primaries : BT.709
Transfer characteristics : BT.709
Matrix coefficients : BT.709

Audio #1
ID : 2
Format : E-AC-3
Format/Info : Enhanced AC-3
Commercial name : Dolby Digital Plus
Codec ID : A_EAC3
Duration : 1 h 34 min
Bit rate mode : Constant
Bit rate : 640 kb/s
Channel(s) : 6 channels
Channel layout : L R C LFE Ls Rs
Sampling rate : 48.0 kHz
Frame rate : 31.250 FPS (1536 SPF)
Compression mode : Lossy
Stream size : 433 MiB (7%)
Title : English
Language : English
Service kind : Complete Main
Default : No
Forced : No

Audio #2
ID : 3
Format : E-AC-3
Format/Info : Enhanced AC-3
Commercial name : Dolby Digital Plus
Codec ID : A_EAC3
Duration : 1 h 34 min
Bit rate mode : Constant
Bit rate : 640 kb/s
Channel(s) : 6 channels
Channel layout : L R C LFE Ls Rs
Sampling rate : 48.0 kHz
Frame rate : 31.250 FPS (1536 SPF)
Compression mode : Lossy
Stream size : 433 MiB (7%)
Title : Hindi
Language : Hindi
Service kind : Complete Main
Default : No
Forced : No

Text #1
ID : 4
Format : UTF-8
Codec ID : S_TEXT/UTF8
Codec ID/Info : UTF-8 Plain Text
Duration : 1 h 29 min
Bit rate : 24 b/s
Count of elements : 776
Stream size : 16.3 KiB (0%)
Title : English [SDH]
Language : English
Default : No
Forced : No

Text #2
ID : 5
Format : UTF-8
Codec ID : S_TEXT/UTF8
Codec ID/Info : UTF-8 Plain Text
Duration : 1 h 29 min
Bit rate : 24 b/s
Count of elements : 776
Stream size : 16.3 KiB (0%)
Title : English
Language : English
Default : No
Forced : No

Black Water Screenshots:

Black Water

Black Water

Black Water

Black Water

Download 1080p – 6.13GB

Download 1080p HEVC – 3.86GB

Download 720p – 2.96GB

Download 720p HEVC – 1.68GB

For All Dual Audio Movies Click Here

Facebook Comments Box
Black Water: Abyss 2020 Dual Audio AMZN WEB-DL
Black Water: Abyss 2020 Dual Audio AMZN WEB-DL
Black Water: Abyss 2020 Dual Audio AMZN WEB-DL
Black Water: Abyss 2020 Dual Audio AMZN WEB-DL
Black Water: Abyss 2020 Dual Audio AMZN WEB-DL
Black Water: Abyss 2020 Dual Audio AMZN WEB-DL