0
1 Star2 Stars3 Stars4 Stars5 Stars (No Ratings Yet)
Loading...

Bolo Dugga Maiki 2017 AMZN WEB-DL

Bolo Dugga Maiki 2017

(2017) Romance | 158min | September 22, 2017 (India) 5.2
Director: Raj ChakrabortyWriter: Raj Chakraborty, N.K. SalilStars: Mehedi Hasan Ariyan, Kaushik Banerjee, Paran BanerjeeSummary: Bolo Dugga Maiki is an entertaining movie about Samya who always lead his life as a liar. However when he meets a girl in a train, Uma, his life changes in the blessings of Maa Durga.

Photos


See all photos >>

Bolo Dugga MaiKi 2017:Bengali Movies; goldmineshd.club;

Media-Info Bolo Dugga Maiki

Bolo Dugga Maiki 2017 Bengali 1080p AMZN WEB-DL DDP2.0 H264 ESub – WiKi-PiKi.mkv
Format : Matroska
Format version : Version 4
File size : 10.55 GiB
Duration : 2 h 35 min
Overall bit rate : 9 742 kb/s
Movie name : GoldminesHD.Club
Encoded date : UTC 2021-08-13 05:38:48
Writing application : mkvmerge v56.1.0 (‘My Friend’) 64-bit
Writing library : libebml v1.4.2 + libmatroska v1.6.4

Video
ID : 1
Format : AVC
Format/Info : Advanced Video Codec
Format profile : [email protected]
Format settings : CABAC / 4 Ref Frames
Format settings, CABAC : Yes
Format settings, Reference frames : 4 frames
Codec ID : V_MPEG4/ISO/AVC
Duration : 2 h 35 min
Bit rate : 9 516 kb/s
Width : 1 920 pixels
Height : 816 pixels
Display aspect ratio : 2.35:1
Frame rate mode : Constant
Frame rate : 24.000 FPS
Color space : YUV
Chroma subsampling : 4:2:0
Bit depth : 8 bits
Scan type : Progressive
Bits/(Pixel*Frame) : 0.253
Stream size : 10.3 GiB (98%)
Title : [email protected]
Default : Yes
Forced : No
Color range : Limited
Color primaries : BT.709
Transfer characteristics : BT.709
Matrix coefficients : BT.709

Audio
ID : 2
Format : E-AC-3
Format/Info : Enhanced AC-3
Commercial name : Dolby Digital Plus
Codec ID : A_EAC3
Duration : 2 h 35 min
Bit rate mode : Constant
Bit rate : 224 kb/s
Channel(s) : 2 channels
Channel layout : L R
Sampling rate : 48.0 kHz
Frame rate : 31.250 FPS (1536 SPF)
Compression mode : Lossy
Delay relative to video : -83 ms
Stream size : 248 MiB (2%)
Title : [email protected]
Language : Bengali
Service kind : Complete Main
Default : Yes
Forced : No

Text
ID : 3
Format : UTF-8
Codec ID : S_TEXT/UTF8
Codec ID/Info : UTF-8 Plain Text
Duration : 2 h 34 min
Bit rate : 50 b/s
Count of elements : 1923
Stream size : 57.8 KiB (0%)
Title : [email protected]
Language : English
Default : Yes
Forced : No

Screenshots:




























Download 1080p – 10.55GB

WEB-RIP Download Link:

Download 1080p – 3.96GB

Download 720p – 1.65GB

Download 360p – 551MB

For All Bengali Movies Click Here

[Fuck You Copy Paster Who Copy Our Post and Don’t Give Us Credit]

Facebook Comments Box

Duration:

Quality: WEB-DL

Release:

Bolo Dugga Maiki 2017 AMZN WEB-DL