0
1 Star2 Stars3 Stars4 Stars5 Stars (No Ratings Yet)
Loading...

Boss 2 2017 AMZN WEB-DL

Boss 2 2017 Bengali Movie

Boss 2: Back to Rule (2017) Action | 136min | June 23, 2017 (India) 5.1
Director: Baba YadavWriter: JeetStars: Subhasree Ganguly, Shahed Ali, Subhashish BanerjeeSummary: Surya, the man who taught his people the art of dreaming and making their dreams come true, has now turned into their biggest enemy. People want him arrested and hanged as they suspect him to be a cheat, who has wrongfully run away with Rs.35, 000 Crores. But can Surya deceive and cheat the ones whom he has lived for? This question is answered in 'Boss 2', and the process is filled with excitement, thrill, shock, emotions and, last but not the least, action.

Photos


See all photos >>

Boss 2 2017:Bengali Movies; goldmineshd.club;

Media-Info Boss 2

BOSS 2 2017 Bengali 1080p AMZN WEB-DL DDP2.0 H264 ESub – WiKi-PiKi.mkv
Format : Matroska
Format version : Version 4
File size : 8.55 GiB
Duration : 2 h 25 min
Overall bit rate : 8 408 kb/s
Movie name : GoldminesHD.Club
Encoded date : UTC 2021-08-20 17:33:22
Writing application : mkvmerge v56.1.0 (‘My Friend’) 64-bit
Writing library : libebml v1.4.2 + libmatroska v1.6.4

Video
ID : 1
Format : AVC
Format/Info : Advanced Video Codec
Format profile : [email protected]
Format settings : CABAC / 4 Ref Frames
Format settings, CABAC : Yes
Format settings, Reference frames : 4 frames
Codec ID : V_MPEG4/ISO/AVC
Duration : 2 h 25 min
Bit rate : 8 182 kb/s
Width : 1 920 pixels
Height : 816 pixels
Display aspect ratio : 2.35:1
Frame rate mode : Constant
Frame rate : 24.000 FPS
Color space : YUV
Chroma subsampling : 4:2:0
Bit depth : 8 bits
Scan type : Progressive
Bits/(Pixel*Frame) : 0.218
Stream size : 8.32 GiB (97%)
Title : [email protected]
Default : Yes
Forced : No
Color range : Limited
Color primaries : BT.709
Transfer characteristics : BT.709
Matrix coefficients : BT.709

Audio
ID : 2
Format : E-AC-3
Format/Info : Enhanced AC-3
Commercial name : Dolby Digital Plus
Codec ID : A_EAC3
Duration : 2 h 25 min
Bit rate mode : Constant
Bit rate : 224 kb/s
Channel(s) : 2 channels
Channel layout : L R
Sampling rate : 48.0 kHz
Frame rate : 31.250 FPS (1536 SPF)
Compression mode : Lossy
Delay relative to video : -83 ms
Stream size : 233 MiB (3%)
Title : [email protected]
Language : Bengali
Service kind : Complete Main
Default : Yes
Forced : No

Text
ID : 3
Format : UTF-8
Codec ID : S_TEXT/UTF8
Codec ID/Info : UTF-8 Plain Text
Duration : 2 h 21 min
Bit rate : 51 b/s
Count of elements : 1825
Stream size : 53.2 KiB (0%)
Title : [email protected]
Language : English
Default : Yes
Forced : No

Boss 2 2017 Screenshots:



























Download 1080p – 8.55GB

For All Bengali Movies Click Here

Facebook Comments Box

Duration: 136 min

Quality: WEB-DL

Release:

IMDb: 5.1

Boss 2 2017 AMZN WEB-DL