0
1 Star2 Stars3 Stars4 Stars5 Stars (No Ratings Yet)
Loading...

Bullet Basya 2015

Bullet Basya

Drama | July 24, 2015 (India) 6.3
Director: JayatheerthaWriter: Jayatheertha, SharanStars: Sharan, Haripriya, Giri GodhulliSummary: Hariprriya and Sharan pair up for the first time in Bullet Basya. Sharan plays a 'trendy' villager in the film and a large part of it is set in the imaginary village of Singapura.

Photos


See all photos >>

Bullet Basya

Media-Info Bullet Basya

Bullet Basya 2015 Kannada 1080p WEB-DL H264 AAC2.0 – WiKi-PiKi.mkv
Format : Matroska
Format version : Version 4
File size : 7.62 GiB
Duration : 2 h 13 min
Overall bit rate : 8 190 kb/s
Movie name : GoldminesHD.Club
Encoded date : UTC 2021-09-21 09:48:12
Writing application : mkvmerge v59.0.0 (‘Shining Star’) 64-bit
Writing library : libebml v1.4.2 + libmatroska v1.6.4

Video
ID : 1
Format : AVC
Format/Info : Advanced Video Codec
Format profile : [email protected]
Format settings : CABAC / 4 Ref Frames
Format settings, CABAC : Yes
Format settings, Reference frames : 4 frames
Codec ID : V_MPEG4/ISO/AVC
Duration : 2 h 13 min
Bit rate : 8 000 kb/s
Width : 1 920 pixels
Height : 816 pixels
Display aspect ratio : 2.35:1
Frame rate mode : Constant
Frame rate : 25.000 FPS
Color space : YUV
Chroma subsampling : 4:2:0
Bit depth : 8 bits
Scan type : Progressive
Bits/(Pixel*Frame) : 0.204
Stream size : 7.44 GiB (98%)
Title : WiKi-PiKi
Writing library : x264 core 138
Encoding settings : cabac=1 / ref=4 / deblock=1:0:0 / analyse=0x3:0x133 / me=umh / subme=9 / psy=1 / psy_rd=1.00:0.00 / mixed_ref=1 / me_range=16 / chroma_me=1 / trellis=2 / 8x8dct=1 / cqm=0 / deadzone=21,11 / fast_pskip=1 / chroma_qp_offset=-2 / threads=4 / lookahead_threads=1 / sliced_threads=0 / nr=0 / decimate=1 / interlaced=0 / bluray_compat=0 / constrained_intra=0 / bframes=3 / b_pyramid=0 / b_adapt=2 / b_bias=0 / direct=3 / weightb=1 / open_gop=0 / weightp=2 / keyint=50 / keyint_min=5 / scenecut=0 / intra_refresh=0 / rc_lookahead=50 / rc=abr / mbtree=1 / bitrate=8000 / ratetol=1.0 / qcomp=0.60 / qpmin=0 / qpmax=69 / qpstep=4 / vbv_maxrate=11200 / vbv_bufsize=16000 / nal_hrd=none / filler=0 / ip_ratio=1.40 / aq=1:1.00
Default : Yes
Forced : No

Audio
ID : 6
Format : AAC LC
Format/Info : Advanced Audio Codec Low Complexity
Codec ID : A_AAC-2
Duration : 2 h 13 min
Bit rate : 192 kb/s
Channel(s) : 2 channels
Channel layout : L R
Sampling rate : 48.0 kHz
Frame rate : 46.875 FPS (1024 SPF)
Compression mode : Lossy
Stream size : 183 MiB (2%)
Language : Kannada
Default : Yes
Forced : No

Bullet Basya Screenshots:
























Download 1080p – 7.62GB

Dowload 720p – 2.32GB

For All Kannada Movies Click Here

Facebook Comments Box

Duration: N/A

Quality: WEB-DL

Release:

IMDb: 6.2

Bullet Basya 2015