0
1 Star2 Stars3 Stars4 Stars5 Stars (No Ratings Yet)
Loading...

Chaamp 2017 AMZN WEB-DL

Chaamp

(2021) Action, Biography, Drama, History, War | 135min | August 12, 2021 (India) 8.8
Director: VishnuvardhanWriter: Sandeep ShrivastavaStars: Sidharth Malhotra, Kiara Advani, Shiv PandittSummary: Based on the life of Captain Vikram Batra who was an officer of the Indian Army, posthumously awarded with the Param Vir Chakra, India's highest and most prestigious award for valour, for his actions during the 1999 Kargil War in Kashmir between India and Pakistan.

Photos


See all photos >>

Chaamp

Media-Info Chaamp

Chaamp 2017 Bengali 1080p AMZN WEB-DL DDP2.0 H264 – WiKi-PiKi.mkv
Format : Matroska
Format version : Version 4
File size : 10.5 GiB
Duration : 2 h 31 min
Overall bit rate mode : Constant
Overall bit rate : 9 864 kb/s
Movie name : GoldminesHD.Club
Encoded date : UTC 2021-10-21 10:42:08
Writing application : mkvmerge v62.0.0 (‘Apollo’) 64-bit
Writing library : libebml v1.4.2 + libmatroska v1.6.4

Video
ID : 1
Format : AVC
Format/Info : Advanced Video Codec
Format profile : [email protected]
Format settings : CABAC / 4 Ref Frames
Format settings, CABAC : Yes
Format settings, Reference frames : 4 frames
Codec ID : V_MPEG4/ISO/AVC
Duration : 2 h 31 min
Bit rate mode : Constant
Bit rate : 10 000 kb/s
Width : 1 920 pixels
Height : 816 pixels
Display aspect ratio : 2.35:1
Frame rate mode : Constant
Frame rate : 24.000 FPS
Color space : YUV
Chroma subsampling : 4:2:0
Bit depth : 8 bits
Scan type : Progressive
Bits/(Pixel*Frame) : 0.266
Stream size : 10.2 GiB (98%)
Title : [email protected]
Default : Yes
Forced : No
Color range : Limited
Color primaries : BT.709
Transfer characteristics : BT.709
Matrix coefficients : BT.709

Audio
ID : 2
Format : E-AC-3
Format/Info : Enhanced AC-3
Commercial name : Dolby Digital Plus
Codec ID : A_EAC3
Duration : 2 h 31 min
Bit rate mode : Constant
Bit rate : 224 kb/s
Channel(s) : 2 channels
Channel layout : L R
Sampling rate : 48.0 kHz
Frame rate : 31.250 FPS (1536 SPF)
Compression mode : Lossy
Stream size : 243 MiB (2%)
Title : [email protected]
Language : Bengali
Service kind : Complete Main
Default : No
Forced : No

Chaamp Screenshots:




















AMZN WEB-DL Download Link

Download 1080p – 10.47GB

Download 1080p HEVC – 6.07GB

Download 720p HEVC – 1.91GB

Direct Download Link

Download 1080p – 5.4 GB                        Download 720p – 2.34 GB

Drive Sharer Link

Download 1080p – 5.4 GB                        Download 720p – 2.34 GB

For All Bengali Movies Click Here

Facebook Comments Box

Duration: 120 min

Quality: WEB-DL

Release:

IMDb: 6.4

Chaamp 2017 AMZN WEB-DL