0
1 Star2 Stars3 Stars4 Stars5 Stars (No Ratings Yet)
Loading...

Chehre 2021 AMZN WEB-DL

Chehre

Faces Drama, Mystery, Thriller | 139min | August 27, 2021 (India) 7.4
Director: Rumi JafferyWriter: Rumi Jaffery, Ranjit KapoorStars: Amitabh Bachchan, Emraan Hashmi, Krystle D'SouzaSummary: CHEHRE is the story of a man who faces a tough time when faced with retired law professionals. Sameer Mehra (Emraan Hashmi) is the chief of an ad agency called Paradoy. He goes to a hill station somewhere in the North for an ad shoot. But due to a work commitment in Delhi, he leaves from the hill town despite heavy snow. On the way, he takes a shortcut to Delhi but due to a tree fall, he gets stuck. On top of it, his car suddenly breaks down. He then meets Paramjeet Singh Bhullar (Annu Kapoor) who advises him to join him to a friend's place till it's safe to go. Paramjeet takes him to the house of Jagdish Acharya (Dhritiman Chatterjee) where Hariya Jatav (Raghubir Yadav) is already present. Soon, Lateef Zaidi (Amitabh Bachchan) also joins them. The quartet then informs Sameer that they meet every day and play a unique game. As part of this game, they conduct a mock trial since all of them are retired law professionals. While Jagdish Acharya was a retired judge in a nearby court, Paramjeet was defense counsel and Lateef was chief prosecutor. They invite Sameer to play this game. Sameer agrees. The quartet tells him that he'll be the accused in their court of law. Paramjeet would defend him while Lateef would try to prove that he's guilty. Jagdish, meanwhile, would be the judge. Lateef gives Sameer a chance to confess if he has ever done any crime and got away with it. Then they'll try him for that charge. Sameer, however, confidently tells that he has never committed any crime. Lateef then gets a chance to try him for any crime he desires. In the course of their conversation, Sameer blurts out that he used to detest his ex-boss, G S Oswal (Samir Soni) as he was a tyrant. Sameer also reveals that Oswal died recently and that he took over his position. At this, Lateef decides to try him in their court for the 'murder' of Oswal. Sameer is aghast and makes it clear that he hasn't killed him. But Lateef tells the court that he's willing to put his legal reputation at stake and that he'll never play this game ever again if he fails to prove that Sameer hasn't been a part of Oswal's 'murder'. Sameer is a bit apprehensive but then he realizes he need not worry as it's just a game. But his worries vanish instantly when he finds out that Hariya Jatav was not a lawyer or judge. He was actually a hangman and that he has kept the noose ready, should the accused is proven guilty in their court. What happens next forms the rest of the film. —https://www.bollywoodhungama.com/movie/chehre/

Photos


See all photos >>

 

Chehre

Media-Info Chehre

Chehre.2021.1080p.AMZN.WEB-DL.DDP5.1.H.264-Telly.mkv
Format : Matroska
Format version : Version 4
File size : 9.49 GiB
Duration : 2 h 18 min
Overall bit rate : 9 784 kb/s
Movie name : Telly
Encoded date : UTC 2021-09-30 15:48:47
Writing application : mkvmerge v59.0.0 (‘Shining Star’) 64-bit
Writing library : libebml v1.4.2 + libmatroska v1.6.4

Video
ID : 1
Format : AVC
Format/Info : Advanced Video Codec
Format profile : [email protected]
Format settings : CABAC / 4 Ref Frames
Format settings, CABAC : Yes
Format settings, Reference frames : 4 frames
Codec ID : V_MPEG4/ISO/AVC
Duration : 2 h 18 min
Bit rate mode : Constant
Bit rate : 9 141 kb/s
Nominal bit rate : 10 000 kb/s
Width : 1 920 pixels
Height : 800 pixels
Display aspect ratio : 2.40:1
Frame rate mode : Constant
Frame rate : 24.000 FPS
Color space : YUV
Chroma subsampling : 4:2:0
Bit depth : 8 bits
Scan type : Progressive
Bits/(Pixel*Frame) : 0.248
Stream size : 8.87 GiB (93%)
Default : Yes
Forced : No
Color range : Limited
Color primaries : BT.709
Transfer characteristics : BT.709
Matrix coefficients : BT.709

Audio
ID : 2
Format : E-AC-3
Format/Info : Enhanced AC-3
Commercial name : Dolby Digital Plus
Codec ID : A_EAC3
Duration : 2 h 18 min
Bit rate mode : Constant
Bit rate : 640 kb/s
Channel(s) : 6 channels
Channel layout : L R C LFE Ls Rs
Sampling rate : 48.0 kHz
Frame rate : 31.250 FPS (1536 SPF)
Compression mode : Lossy
Stream size : 636 MiB (7%)
Title : Hindi
Language : Hindi
Service kind : Complete Main
Default : No
Forced : No

Text
ID : 3
Format : UTF-8
Codec ID : S_TEXT/UTF8
Codec ID/Info : UTF-8 Plain Text
Duration : 2 h 14 min
Bit rate : 66 b/s
Count of elements : 2233
Stream size : 65.3 KiB (0%)
Title : English
Language : English
Default : No
Forced : No

Chehre Screenshots:

Chehre

Chehre

Chehre

Chehre

Download 1080p – 9.49GB

Download 1080p HEVC – 4.79GB

Download 720p – 2.11GB

Download 720p HEVC – 1.61GB

For All Hindi Movies Click Here

Facebook Comments Box

Duration: 139 min

Quality: WEB-DL

Release:

IMDb: 7.3