0
1 Star2 Stars3 Stars4 Stars5 Stars (No Ratings Yet)
Loading...

Chhoto Bou 1988 AMZN WEB-DL

Chhoto Bou

Drama | 136min | July 15, 1988 (India) 6.3
Director: Anjan ChoudhuryWriter: Anjan ChoudhuryStars: Ranjit Mallick, Sandhya Roy, Kali BannerjeeSummary: a bengali housewife give a retort to her bad minded mother-in-law

Photos


See all photos >>

Chhoto Bou

Media-Info Chhoto Bou

Chhoto Bou 1988 Bengali 1080p AMZN WEB-DL DDP2.0 H264 ESub – WiKi-PiKi.mkv
Format : Matroska
Format version : Version 4
File size : 5.39 GiB
Duration : 2 h 16 min
Overall bit rate : 5 657 kb/s
Movie name : GoldminesHD.Club
Encoded date : UTC 2021-09-17 03:34:22
Writing application : mkvmerge v56.1.0 (‘My Friend’) 64-bit
Writing library : libebml v1.4.2 + libmatroska v1.6.4
Attachments : WiKi-PiKi.jpg

Video
ID : 1
Format : AVC
Format/Info : Advanced Video Codec
Format profile : [email protected]
Format settings : CABAC / 4 Ref Frames
Format settings, CABAC : Yes
Format settings, Reference frames : 4 frames
Codec ID : V_MPEG4/ISO/AVC
Duration : 2 h 16 min
Bit rate : 5 431 kb/s
Width : 1 920 pixels
Height : 1 080 pixels
Display aspect ratio : 16:9
Frame rate mode : Constant
Frame rate : 25.000 FPS
Color space : YUV
Chroma subsampling : 4:2:0
Bit depth : 8 bits
Scan type : Progressive
Bits/(Pixel*Frame) : 0.105
Stream size : 5.18 GiB (96%)
Title : [email protected]
Default : Yes
Forced : No
Color range : Limited
Color primaries : BT.709
Transfer characteristics : BT.709
Matrix coefficients : BT.709

Audio
ID : 2
Format : E-AC-3
Format/Info : Enhanced AC-3
Commercial name : Dolby Digital Plus
Codec ID : A_EAC3
Duration : 2 h 16 min
Bit rate mode : Constant
Bit rate : 224 kb/s
Channel(s) : 2 channels
Channel layout : L R
Sampling rate : 48.0 kHz
Frame rate : 31.250 FPS (1536 SPF)
Compression mode : Lossy
Stream size : 219 MiB (4%)
Title : [email protected]
Language : Bengali
Service kind : Complete Main
Default : Yes
Forced : No

Text
ID : 3
Format : UTF-8
Codec ID : S_TEXT/UTF8
Codec ID/Info : UTF-8 Plain Text
Duration : 2 h 12 min
Bit rate : 67 b/s
Count of elements : 1775
Stream size : 65.2 KiB (0%)
Title : [email protected]
Language : English
Default : Yes
Forced : No

Chhoto Bou Screenshots:






























Download 1080p – 5.39GB

For All Bengali Movies Click Here

Facebook Comments Box

Duration: 136 min

Quality: WEB-DL

Release:

IMDb: 6.3