0
1 Star2 Stars3 Stars4 Stars5 Stars (No Ratings Yet)
Loading...

Cold Pursuit 2019

Cold Pursuit

Báo Thù Action, Comedy, Crime, Drama, Thriller | 119min | February 8, 2019 (United States) 6.2
Director: Hans Petter MolandWriter: Frank Baldwin, Kim Fupz AakesonStars: Liam Neeson, Laura Dern, Micheál RichardsonSummary: Quiet family man and hard-working snowplow driver Nels is the lifeblood of a glitzy resort town in the Rocky Mountains because he is the one who keeps the winter roads clear. He and his wife live in a comfortable cabin away from the tourists. The town has just awarded him "Citizen of the Year." But Nels has to leave his quiet mountain life when his son is murdered by a powerful drug lord. As a man who has nothing to lose he is stoked by a drive for vengeance. This unlikely hero uses his hunting skills and transforms from an ordinary man into a skilled killer as he sets out to dismantle the cartel. Nels' actions ignite a turf war between a manically unpredictable gangster known as Viking and a rival gang boss. Justice is served in one final spectacular confrontation that will leave (almost) no one unscathed.

Photos


See all photos >>

Cold Pursuit

Media-Info Cold Pursuit

Cold.Pursuit.2019.1080p.LPLAY.WEB-DL.HIN-Multi.AAC2.0.x264-Telly.mkv
Format : Matroska
Format version : Version 4
File size : 4.01 GiB
Duration : 1 h 53 min
Overall bit rate : 5 040 kb/s
Movie name : Telly
Encoded date : UTC 2021-09-16 13:49:44
Writing application : mkvmerge v53.0.0 (‘Fool’s Gold’) 64-bit
Writing library : libebml v1.4.1 + libmatroska v1.6.2

Video
ID : 1
Format : AVC
Format/Info : Advanced Video Codec
Format profile : [email protected]
Format settings : CABAC / 2 Ref Frames
Format settings, CABAC : Yes
Format settings, Reference frames : 2 frames
Codec ID : V_MPEG4/ISO/AVC
Duration : 1 h 53 min
Bit rate mode : Constant
Bit rate : 4 500 kb/s
Width : 1 920 pixels
Height : 1 080 pixels
Display aspect ratio : 16:9
Frame rate mode : Constant
Frame rate : 25.000 FPS
Color space : YUV
Chroma subsampling : 4:2:0
Bit depth : 8 bits
Scan type : Progressive
Bits/(Pixel*Frame) : 0.087
Stream size : 3.55 GiB (88%)
Default : Yes
Forced : No

Audio #1
ID : 2
Format : AAC LC SBR
Format/Info : Advanced Audio Codec Low Complexity with Spectral Band Replication
Commercial name : HE-AAC
Format settings : Explicit
Codec ID : A_AAC-2
Duration : 1 h 53 min
Bit rate : 96.0 kb/s
Channel(s) : 2 channels
Channel layout : L R
Sampling rate : 44.1 kHz
Frame rate : 21.533 FPS (2048 SPF)
Compression mode : Lossy
Stream size : 78.2 MiB (2%)
Language : Telugu
Default : Yes
Forced : No

Audio #2
ID : 3
Format : AAC LC SBR
Format/Info : Advanced Audio Codec Low Complexity with Spectral Band Replication
Commercial name : HE-AAC
Format settings : Explicit
Codec ID : A_AAC-2
Duration : 1 h 53 min
Bit rate : 96.0 kb/s
Channel(s) : 2 channels
Channel layout : L R
Sampling rate : 44.1 kHz
Frame rate : 21.533 FPS (2048 SPF)
Compression mode : Lossy
Stream size : 78.2 MiB (2%)
Language : Tamil
Default : No
Forced : No

Audio #3
ID : 4
Format : AAC LC SBR
Format/Info : Advanced Audio Codec Low Complexity with Spectral Band Replication
Commercial name : HE-AAC
Format settings : Explicit
Codec ID : A_AAC-2
Duration : 1 h 53 min
Bit rate : 96.0 kb/s
Channel(s) : 2 channels
Channel layout : L R
Sampling rate : 44.1 kHz
Frame rate : 21.533 FPS (2048 SPF)
Compression mode : Lossy
Stream size : 78.2 MiB (2%)
Language : Kannada
Default : No
Forced : No

Audio #4
ID : 5
Format : AAC LC SBR
Format/Info : Advanced Audio Codec Low Complexity with Spectral Band Replication
Commercial name : HE-AAC
Format settings : Explicit
Codec ID : A_AAC-2
Duration : 1 h 53 min
Bit rate : 96.0 kb/s
Channel(s) : 2 channels
Channel layout : L R
Sampling rate : 44.1 kHz
Frame rate : 21.533 FPS (2048 SPF)
Compression mode : Lossy
Stream size : 78.2 MiB (2%)
Language : Hindi
Default : No
Forced : No

Audio #5
ID : 6
Format : AAC LC SBR
Format/Info : Advanced Audio Codec Low Complexity with Spectral Band Replication
Commercial name : HE-AAC
Format settings : Explicit
Codec ID : A_AAC-2
Duration : 1 h 53 min
Bit rate : 96.0 kb/s
Channel(s) : 2 channels
Channel layout : L R
Sampling rate : 44.1 kHz
Frame rate : 21.533 FPS (2048 SPF)
Compression mode : Lossy
Stream size : 78.2 MiB (2%)
Language : English
Default : No
Forced : No

Audio #6
ID : 7
Format : AAC LC SBR
Format/Info : Advanced Audio Codec Low Complexity with Spectral Band Replication
Commercial name : HE-AAC
Format settings : Explicit
Codec ID : A_AAC-2
Duration : 1 h 53 min
Bit rate : 96.0 kb/s
Channel(s) : 2 channels
Channel layout : L R
Sampling rate : 44.1 kHz
Frame rate : 21.533 FPS (2048 SPF)
Compression mode : Lossy
Stream size : 78.2 MiB (2%)
Language : Bihari
Default : No
Forced : No

Text
ID : 8
Format : UTF-8
Codec ID : S_TEXT/UTF8
Codec ID/Info : UTF-8 Plain Text
Duration : 1 h 42 min
Bit rate : 45 b/s
Count of elements : 1056
Stream size : 34.2 KiB (0%)
Language : English
Default : No
Forced : No

Cold Pursuit Screenshots:

Cold Pursuit

Cold Pursuit

Cold Pursuit

Cold Pursuit

Download 1080p – 4.01GB

Download 720p – 2.43GB

For All Multi Audio Movies Click Here

Facebook Comments Box
Cold Pursuit 2019
Cold Pursuit 2019
Cold Pursuit 2019
Cold Pursuit 2019
Cold Pursuit 2019
Cold Pursuit 2019
Cold Pursuit 2019
Cold Pursuit 2019
Cold Pursuit 2019
Cold Pursuit 2019
Cold Pursuit 2019
Cold Pursuit 2019
Cold Pursuit 2019
Cold Pursuit 2019
Cold Pursuit 2019
Cold Pursuit 2019
Cold Pursuit 2019
Cold Pursuit 2019