0
1 Star2 Stars3 Stars4 Stars5 Stars (No Ratings Yet)
Loading...

Comedy Premium League 2021 S1 NF WEB-DL

Comedy Premium League

Batalha de Comediantes: Índia (2021) Comedy | August 20, 2021 (India) 6.1
Stars: Urooj Ashfaq, Tanmay Bhat, Mallika DuaSummary: Follows India's funniest entertainers engage in battles of wit and wisecracks, in the expectation to be crowned the ultimate comedy champs.

Comedy Premium League 2021:Hindi Series; goldmineshd.club;

Media-Info Comedy Premium League

General
Comedy.Premium.League.S01.1080p.NF.WEB-DL.DD+5.1.x264-Telly\Comedy.Premium.League.S01E01.1080p.NF.WEB-DL.DD+5.1.x264-Telly.mkv
Format : Matroska
Format version : Version 4
File size : 2.18 GiB
Duration : 49 min 25 s
Overall bit rate mode : Variable
Overall bit rate : 6 310 kb/s
Movie name : Telly
Encoded date : UTC 2021-08-20 07:13:19
Writing application : mkvmerge v59.0.0 (‘Shining Star’) 64-bit
Writing library : libebml v1.4.2 + libmatroska v1.6.4

Video
ID : 1
Format : AVC
Format/Info : Advanced Video Codec
Format profile : [email protected]
Format settings : CABAC / 3 Ref Frames
Format settings, CABAC : Yes
Format settings, Reference frames : 3 frames
Codec ID : V_MPEG4/ISO/AVC
Duration : 49 min 25 s
Bit rate mode : Variable
Bit rate : 5 800 kb/s
Maximum bit rate : 8 700 kb/s
Width : 1 920 pixels
Height : 1 080 pixels
Display aspect ratio : 16:9
Frame rate mode : Constant
Frame rate : 25.000 FPS
Color space : YUV
Chroma subsampling : 4:2:0
Bit depth : 8 bits
Scan type : Progressive
Bits/(Pixel*Frame) : 0.112
Stream size : 1.95 GiB (90%)
Writing library : x264 core 148 r2722 1b0121b
Default : Yes
Forced : No

Audio
ID : 2
Format : E-AC-3
Format/Info : Enhanced AC-3
Commercial name : Dolby Digital Plus
Codec ID : A_EAC3
Duration : 49 min 25 s
Bit rate mode : Constant
Bit rate : 640 kb/s
Channel(s) : 6 channels
Channel layout : L R C LFE Ls Rs
Sampling rate : 48.0 kHz
Frame rate : 31.250 FPS (1536 SPF)
Compression mode : Lossy
Stream size : 226 MiB (10%)
Title : Hindi
Language : Hindi
Service kind : Complete Main
Default : Yes
Forced : No

Text #1
ID : 3
Format : UTF-8
Codec ID : S_TEXT/UTF8
Codec ID/Info : UTF-8 Plain Text
Duration : 49 min 8 s
Bit rate : 303 b/s
Count of elements : 967
Stream size : 109 KiB (0%)
Title : Hindi
Language : Hindi
Default : No
Forced : No

Text #2
ID : 4
Format : UTF-8
Codec ID : S_TEXT/UTF8
Codec ID/Info : UTF-8 Plain Text
Duration : 1 s 320 ms
Bit rate : 121 b/s
Count of elements : 1
Stream size : 20.0 Bytes (0%)
Title : Forced
Language : Hindi
Default : No
Forced : Yes

Text #3
ID : 5
Format : UTF-8
Codec ID : S_TEXT/UTF8
Codec ID/Info : UTF-8 Plain Text
Duration : 47 min 33 s
Bit rate : 99 b/s
Count of elements : 926
Stream size : 34.6 KiB (0%)
Title : English
Language : English
Default : No
Forced : No

Text #4
ID : 6
Format : UTF-8
Codec ID : S_TEXT/UTF8
Codec ID/Info : UTF-8 Plain Text
Duration : 47 min 33 s
Bit rate : 99 b/s
Count of elements : 926
Stream size : 34.6 KiB (0%)
Title : English
Language : English
Default : No
Forced : No

Text #5
ID : 7
Format : UTF-8
Codec ID : S_TEXT/UTF8
Codec ID/Info : UTF-8 Plain Text
Duration : 49 min 13 s
Bit rate : 153 b/s
Count of elements : 927
Stream size : 55.3 KiB (0%)
Title : Arabic
Language : Arabic
Default : No
Forced : No

Text #6
ID : 8
Format : UTF-8
Codec ID : S_TEXT/UTF8
Codec ID/Info : UTF-8 Plain Text
Duration : 49 min 13 s
Bit rate : 82 b/s
Count of elements : 928
Stream size : 29.7 KiB (0%)
Title : Chinese Simplified
Language : Chinese
Default : No
Forced : No

Text #7
ID : 9
Format : UTF-8
Codec ID : S_TEXT/UTF8
Codec ID/Info : UTF-8 Plain Text
Duration : 49 min 13 s
Bit rate : 83 b/s
Count of elements : 928
Stream size : 30.0 KiB (0%)
Title : Chinese Traditional
Language : Chinese
Default : No
Forced : No

Text #8
ID : 10
Format : UTF-8
Codec ID : S_TEXT/UTF8
Codec ID/Info : UTF-8 Plain Text
Duration : 49 min 13 s
Bit rate : 97 b/s
Count of elements : 926
Stream size : 35.2 KiB (0%)
Title : Croatian
Language : Croatian
Default : No
Forced : No

Text #9
ID : 11
Format : UTF-8
Codec ID : S_TEXT/UTF8
Codec ID/Info : UTF-8 Plain Text
Duration : 49 min 13 s
Bit rate : 85 b/s
Count of elements : 926
Stream size : 30.9 KiB (0%)
Title : Czech
Language : Czech
Default : No
Forced : No

Text #10
ID : 12
Format : UTF-8
Codec ID : S_TEXT/UTF8
Codec ID/Info : UTF-8 Plain Text
Duration : 49 min 13 s
Bit rate : 95 b/s
Count of elements : 928
Stream size : 34.5 KiB (0%)
Title : Danish
Language : Danish
Default : No
Forced : No

Text #11
ID : 13
Format : UTF-8
Codec ID : S_TEXT/UTF8
Codec ID/Info : UTF-8 Plain Text
Duration : 49 min 13 s
Bit rate : 94 b/s
Count of elements : 920
Stream size : 34.2 KiB (0%)
Title : Dutch
Language : Dutch
Default : No
Forced : No

Text #12
ID : 14
Format : UTF-8
Codec ID : S_TEXT/UTF8
Codec ID/Info : UTF-8 Plain Text
Duration : 49 min 13 s
Bit rate : 84 b/s
Count of elements : 919
Stream size : 30.5 KiB (0%)
Title : Finnish
Language : Finnish
Default : No
Forced : No

Text #13
ID : 15
Format : UTF-8
Codec ID : S_TEXT/UTF8
Codec ID/Info : UTF-8 Plain Text
Duration : 49 min 13 s
Bit rate : 103 b/s
Count of elements : 924
Stream size : 37.2 KiB (0%)
Title : French
Language : French
Default : No
Forced : No

Text #14
ID : 16
Format : UTF-8
Codec ID : S_TEXT/UTF8
Codec ID/Info : UTF-8 Plain Text
Duration : 49 min 12 s
Bit rate : 97 b/s
Count of elements : 927
Stream size : 35.2 KiB (0%)
Title : German
Language : German
Default : No
Forced : No

Text #15
ID : 17
Format : UTF-8
Codec ID : S_TEXT/UTF8
Codec ID/Info : UTF-8 Plain Text
Duration : 49 min 13 s
Bit rate : 157 b/s
Count of elements : 904
Stream size : 56.6 KiB (0%)
Title : Greek
Language : Greek
Default : No
Forced : No

Text #16
ID : 18
Format : UTF-8
Codec ID : S_TEXT/UTF8
Codec ID/Info : UTF-8 Plain Text
Duration : 49 min 13 s
Bit rate : 139 b/s
Count of elements : 928
Stream size : 50.3 KiB (0%)
Title : Hebrew
Language : Hebrew
Default : No
Forced : No

Text #17
ID : 19
Format : UTF-8
Codec ID : S_TEXT/UTF8
Codec ID/Info : UTF-8 Plain Text
Duration : 49 min 13 s
Bit rate : 90 b/s
Count of elements : 926
Stream size : 32.7 KiB (0%)
Title : Hungarian
Language : Hungarian
Default : No
Forced : No

Text #18
ID : 20
Format : UTF-8
Codec ID : S_TEXT/UTF8
Codec ID/Info : UTF-8 Plain Text
Duration : 49 min 13 s
Bit rate : 93 b/s
Count of elements : 927
Stream size : 33.8 KiB (0%)
Title : Indonesian
Language : Indonesian
Default : No
Forced : No

Text #19
ID : 21
Format : UTF-8
Codec ID : S_TEXT/UTF8
Codec ID/Info : UTF-8 Plain Text
Duration : 49 min 13 s
Bit rate : 96 b/s
Count of elements : 925
Stream size : 34.9 KiB (0%)
Title : Italian
Language : Italian
Default : No
Forced : No

Text #20
ID : 22
Format : UTF-8
Codec ID : S_TEXT/UTF8
Codec ID/Info : UTF-8 Plain Text
Duration : 49 min 10 s
Bit rate : 87 b/s
Count of elements : 896
Stream size : 31.5 KiB (0%)
Title : Japanese
Language : Japanese
Default : No
Forced : No

Text #21
ID : 23
Format : UTF-8
Codec ID : S_TEXT/UTF8
Codec ID/Info : UTF-8 Plain Text
Duration : 49 min 13 s
Bit rate : 118 b/s
Count of elements : 926
Stream size : 42.6 KiB (0%)
Title : Korean
Language : Korean
Default : No
Forced : No

Text #22
ID : 24
Format : UTF-8
Codec ID : S_TEXT/UTF8
Codec ID/Info : UTF-8 Plain Text
Duration : 49 min 13 s
Bit rate : 97 b/s
Count of elements : 927
Stream size : 35.2 KiB (0%)
Title : Malay
Language : Malay
Default : No
Forced : No

Text #23
ID : 25
Format : UTF-8
Codec ID : S_TEXT/UTF8
Codec ID/Info : UTF-8 Plain Text
Duration : 49 min 13 s
Bit rate : 86 b/s
Count of elements : 928
Stream size : 31.1 KiB (0%)
Title : Norwegian Bokmal
Language : Norwegian Bokmal
Default : No
Forced : No

Text #24
ID : 26
Format : UTF-8
Codec ID : S_TEXT/UTF8
Codec ID/Info : UTF-8 Plain Text
Duration : 49 min 13 s
Bit rate : 75 b/s
Count of elements : 924
Stream size : 27.3 KiB (0%)
Title : Polish
Language : Polish
Default : No
Forced : No

Text #25
ID : 27
Format : UTF-8
Codec ID : S_TEXT/UTF8
Codec ID/Info : UTF-8 Plain Text
Duration : 49 min 13 s
Bit rate : 96 b/s
Count of elements : 926
Stream size : 34.8 KiB (0%)
Title : Portuguese
Language : Portuguese
Default : No
Forced : No

Text #26
ID : 28
Format : UTF-8
Codec ID : S_TEXT/UTF8
Codec ID/Info : UTF-8 Plain Text
Duration : 49 min 13 s
Bit rate : 83 b/s
Count of elements : 923
Stream size : 30.3 KiB (0%)
Title : Brazilian Portuguese
Language : Portuguese
Default : No
Forced : No

Text #27
ID : 29
Format : UTF-8
Codec ID : S_TEXT/UTF8
Codec ID/Info : UTF-8 Plain Text
Duration : 49 min 13 s
Bit rate : 109 b/s
Count of elements : 902
Stream size : 39.4 KiB (0%)
Title : Romanian
Language : Romanian
Default : No
Forced : No

Text #28
ID : 30
Format : UTF-8
Codec ID : S_TEXT/UTF8
Codec ID/Info : UTF-8 Plain Text
Duration : 49 min 13 s
Bit rate : 154 b/s
Count of elements : 927
Stream size : 55.5 KiB (0%)
Title : Russian
Language : Russian
Default : No
Forced : No

Text #29
ID : 31
Format : UTF-8
Codec ID : S_TEXT/UTF8
Codec ID/Info : UTF-8 Plain Text
Duration : 49 min 13 s
Bit rate : 98 b/s
Count of elements : 928
Stream size : 35.4 KiB (0%)
Title : Spanish
Language : Spanish
Default : No
Forced : No

Text #30
ID : 32
Format : UTF-8
Codec ID : S_TEXT/UTF8
Codec ID/Info : UTF-8 Plain Text
Duration : 49 min 13 s
Bit rate : 86 b/s
Count of elements : 917
Stream size : 31.3 KiB (0%)
Title : European Spanish
Language : Spanish
Default : No
Forced : No

Text #31
ID : 33
Format : UTF-8
Codec ID : S_TEXT/UTF8
Codec ID/Info : UTF-8 Plain Text
Duration : 49 min 13 s
Bit rate : 95 b/s
Count of elements : 908
Stream size : 34.4 KiB (0%)
Title : Swedish
Language : Swedish
Default : No
Forced : No

Text #32
ID : 34
Format : UTF-8
Codec ID : S_TEXT/UTF8
Codec ID/Info : UTF-8 Plain Text
Duration : 49 min 13 s
Bit rate : 213 b/s
Count of elements : 927
Stream size : 76.9 KiB (0%)
Title : Thai
Language : Thai
Default : No
Forced : No

Text #33
ID : 35
Format : UTF-8
Codec ID : S_TEXT/UTF8
Codec ID/Info : UTF-8 Plain Text
Duration : 49 min 13 s
Bit rate : 96 b/s
Count of elements : 927
Stream size : 34.9 KiB (0%)
Title : Turkish
Language : Turkish
Default : No
Forced : No

Text #34
ID : 36
Format : UTF-8
Codec ID : S_TEXT/UTF8
Codec ID/Info : UTF-8 Plain Text
Duration : 49 min 13 s
Bit rate : 148 b/s
Count of elements : 926
Stream size : 53.6 KiB (0%)
Title : Ukrainian
Language : Ukrainian
Default : No
Forced : No

Text #35
ID : 37
Format : UTF-8
Codec ID : S_TEXT/UTF8
Codec ID/Info : UTF-8 Plain Text
Duration : 49 min 13 s
Bit rate : 121 b/s
Count of elements : 928
Stream size : 43.8 KiB (0%)
Title : Vietnamese
Language : Vietnamese
Default : No
Forced : No

 

Subtitles: Comedy Premium League 2021:Hindi Series; goldmineshd.club;  Comedy Premium League 2021:Hindi Series; goldmineshd.club;  Comedy Premium League 2021:Hindi Series; goldmineshd.club;  Comedy Premium League 2021:Hindi Series; goldmineshd.club;  Comedy Premium League 2021:Hindi Series; goldmineshd.club;  Comedy Premium League 2021:Hindi Series; goldmineshd.club;  Comedy Premium League 2021:Hindi Series; goldmineshd.club;  Comedy Premium League 2021:Hindi Series; goldmineshd.club;  Comedy Premium League 2021:Hindi Series; goldmineshd.club;  Comedy Premium League 2021:Hindi Series; goldmineshd.club;  Comedy Premium League 2021:Hindi Series; goldmineshd.club;  Comedy Premium League 2021:Hindi Series; goldmineshd.club;  Comedy Premium League 2021:Hindi Series; goldmineshd.club;  Comedy Premium League 2021:Hindi Series; goldmineshd.club;  Comedy Premium League 2021:Hindi Series; goldmineshd.club;  Comedy Premium League 2021:Hindi Series; goldmineshd.club;  Comedy Premium League 2021:Hindi Series; goldmineshd.club;  Comedy Premium League 2021:Hindi Series; goldmineshd.club;  Italian  Japanese  Korean  Malay  Norwegian Bokmal  Polish  Portuguese  Portuguese  Romanian  Russian  Spanish  Spanish  Swedish  Thai

  Turkish  Ukrainian  Vietnamese

Screenshots: 

1080p Download Link

Download Season 1 Episode 1                 Download Season 1 Episode 2

Download Season 1 Episode 3                Download Season 1 Episode 4

Download Season 1 Episode 5                Download Season 1 Episode 6

1080p HDR Download Link

Download Season 1 Episode 1                Download Season 1 Episode 2

Download Season 1 Episode 3               Download Season 1 Episode 4

Download Season 1 Episode 5               Download Season 1 Episode 6

720p Download Link

Download Season 1 Episode 1                Download Season 1 Episode 2

Download Season 1 Episode 3               Download Season 1 Episode 4

Download Season 1 Episode 5               Download Season 1 Episode 6

 

For All Webseries Click Here

Facebook Comments Box