0
1 Star2 Stars3 Stars4 Stars5 Stars (No Ratings Yet)
Loading...

Dadur Kirti 2021 WEB-DL

Dadur Kirti

Dadur Kirti

Media-Info Dadur Kirti

Dadur.Kirti.2021.1080p.ZEE5.WEB-DL.AAC2.0.H.264-Telly.mkv
Format : Matroska
Format version : Version 4
File size : 2.55 GiB
Duration : 2 h 13 min
Overall bit rate mode : Variable
Overall bit rate : 2 737 kb/s
Encoded date : UTC 2021-10-07 18:25:57
Writing application : mkvmerge v11.0.0 (‘Alive’) 64bit
Writing library : libebml v1.3.4 + libmatroska v1.4.5

Video
ID : 1
Format : AVC
Format/Info : Advanced Video Codec
Format profile : [email protected]
Format settings : CABAC / 4 Ref Frames
Format settings, CABAC : Yes
Format settings, ReFrames : 4 frames
Format settings, GOP : M=4, N=50
Codec ID : V_MPEG4/ISO/AVC
Duration : 2 h 13 min
Bit rate mode : Variable
Bit rate : 2 671 kb/s
Maximum bit rate : 6 500 kb/s
Width : 1 920 pixels
Height : 1 080 pixels
Display aspect ratio : 16:9
Frame rate mode : Constant
Frame rate : 25.000 FPS
Color space : YUV
Chroma subsampling : 4:2:0
Bit depth : 8 bits
Scan type : Progressive
Bits/(Pixel*Frame) : 0.052
Stream size : 2.49 GiB (98%)
Default : Yes
Forced : No
Color range : Limited
Color primaries : BT.709
Transfer characteristics : BT.709
Matrix coefficients : BT.709

Audio
ID : 2
Format : AAC LC
Format/Info : Advanced Audio Codec Low Complexity
Codec ID : A_AAC-2
Duration : 2 h 13 min
Bit rate : 64.0 kb/s
Channel(s) : 2 channels
Channel layout : L R
Sampling rate : 48.0 kHz
Frame rate : 46.875 FPS (1024 SPF)
Compression mode : Lossy
Stream size : 61.1 MiB (2%)
Language : Bengali
Default : Yes
Forced : No

Text
ID : 3
Format : UTF-8
Codec ID : S_TEXT/UTF8
Codec ID/Info : UTF-8 Plain Text
Duration : 2 h 8 min
Bit rate : 71 b/s
Count of elements : 2123
Stream size : 67.8 KiB (0%)
Language : English
Default : No
Forced : No

Dadur Kirti Screenshots:

Dadur Kirti

Dadur Kirti

Dadur Kirti

Download 1080p – 2.55GB

For All Bengali Movies Click Here

Facebook Comments Box

Views: 43

Genre: Uncategorized

Duration:

Quality: WEB-DL

Release: