0
1 Star2 Stars3 Stars4 Stars5 Stars (No Ratings Yet)
Loading...

Dance Plus Season 6 2021

Dance Plus S6

Reality-TV | July 26, 2015 (India) 7.6
Stars: Remo D'Souza, Dharmesh Yelande, Raghav JuyalSummary: Discover solo, couple and group performances starting a movement in revolutionary styles. Transforming dance culture, to find the next big dance trend.

Photos


See all photos >>

Dance Plus S6

Media-Info Dance Plus S6

Dance.S6E01.The.Dancing.Gurus.Are.Back.1080p.DSNP.WEB-DL.AAC2.0.x264-Telly.mkv
Format : Matroska
Format version : Version 4
File size : 1.29 GiB
Duration : 53 min 47 s
Overall bit rate : 3 425 kb/s
Movie name : Telly
Encoded date : UTC 2021-09-14 09:41:05
Writing application : mkvmerge v61.0.0 (‘So’) 64-bit
Writing library : libebml v1.4.2 + libmatroska v1.6.4

Video
ID : 1
Format : AVC
Format/Info : Advanced Video Codec
Format profile : [email protected]
Format settings : CABAC / 4 Ref Frames
Format settings, CABAC : Yes
Format settings, Reference frames : 4 frames
Codec ID : V_MPEG4/ISO/AVC
Duration : 53 min 47 s
Bit rate : 3 300 kb/s
Width : 1 920 pixels
Height : 1 080 pixels
Display aspect ratio : 16:9
Frame rate mode : Constant
Frame rate : 25.000 FPS
Color space : YUV
Chroma subsampling : 4:2:0
Bit depth : 8 bits
Scan type : Progressive
Bits/(Pixel*Frame) : 0.064
Stream size : 1.24 GiB (96%)
Writing library : x264 core 155 r2917+2 f192430
Encoding settings : cabac=1 / ref=4 / deblock=1:-1:-1 / analyse=0x3:0x113 / me=hex / subme=8 / psy=1 / psy_rd=1.00:0.15 / mixed_ref=1 / me_range=16 / chroma_me=1 / trellis=2 / 8x8dct=1 / cqm=0 / deadzone=21,11 / fast_pskip=1 / chroma_qp_offset=-3 / threads=14 / lookahead_threads=2 / sliced_threads=0 / nr=0 / decimate=1 / interlaced=0 / bluray_compat=0 / constrained_intra=0 / bframes=3 / b_pyramid=2 / b_adapt=2 / b_bias=0 / direct=3 / weightb=1 / open_gop=0 / weightp=2 / keyint=50 / keyint_min=26 / scenecut=0 / intra_refresh=0 / rc_lookahead=50 / rc=2pass / mbtree=1 / bitrate=3300 / ratetol=1.0 / qcomp=0.60 / qpmin=0 / qpmax=69 / qpstep=4 / cplxblur=20.0 / qblur=0.5 / vbv_maxrate=4950 / vbv_bufsize=6600 / nal_hrd=none / filler=0 / ip_ratio=1.40 / aq=3:1.00
Default : Yes
Forced : No
Color range : Limited
Color primaries : BT.709
Transfer characteristics : BT.709
Matrix coefficients : BT.709

Audio
ID : 2
Format : AAC LC
Format/Info : Advanced Audio Codec Low Complexity
Codec ID : A_AAC-2
Duration : 53 min 47 s
Bit rate : 128 kb/s
Channel(s) : 2 channels
Channel layout : L R
Sampling rate : 48.0 kHz
Frame rate : 46.875 FPS (1024 SPF)
Compression mode : Lossy
Stream size : 49.3 MiB (4%)
Language : Hindi
Default : Yes
Forced : No

Dance Plus S6 Screenshots:

Dance Plus S6

Dance Plus S6

Dance Plus S6

Dance Plus S6

Download S06 EP – 01 1080p – 1.29GB

Download S06 EP – 02 1080p – 1.28GB

Download S06 – EP – 03 1080p – 1.34GB

Download S06 EP – 04 1080p – 1.2GB

Download S06 EP – 05 1080p – 1.31GB

Download S06 EP – 06 1080p – 1.29GB

Download S06 EP – 07 1080p – 1.21GB

Download S06 EP – 08 1080p – 1.32GB

Download S06 EP – 09 1080p – 1.24GB

Download S06 EP – 10 1080p – 1.38GB

Download S06 EP – 11 1080p – 1.32GB

Download S06 EP – 12 1080p – 1.32GB

Download S06 EP – 13 1080p – 1.25GB

Download S06 EP – 14 1080p – 1.35GB

Download S06 EP – 15 1080p – 1.39GB

Download S06 EP – 16 1080p – 1.18GB

Download S06 EP – 17 1080p – 1.34GB

Download S06 EP – 18 1080p – 1.27GB

Download S06 EP – 19 1080p – 1.41GB

Download S06 EP – 20 1080p – 1.44GB

Download S06 EP – 21 1080p – 1.3GB

Download S06 EP – 22 1080p – 1.29GB

Download S06 EP – 23 1080p – 1.46GB

Download S06 EP – 24 1080p – 1.78GB

Download S06 EP – 25 1080p – 2.49GB

For All TV-Series Click Here

Facebook Comments Box

Duration: N/A

Quality: WEB-DL

Release:

IMDb: 7.7