0
1 Star2 Stars3 Stars4 Stars5 Stars (No Ratings Yet)
Loading...

Dark World: Equilibrium 2013 Hindi

Dark World

Dark World II: Equilibrium Adventure, Fantasy, Mystery, Sci-Fi, Thriller | 95min | December 5, 2013 (Russia) 4.0
Stars: Vladislav Ivanov, Mariya Pirogova, Pavel PriluchnyySummary: A team of initiates fights to maintain a balance between the dark world and the human one.

Photos


See all photos >>

Dark World

Media-Info Dark World

Dark World Equilibrium.2013.Hindi.WEB-DL.AAC.2.0.x264-Telly.mkv
Format : Matroska
Format version : Version 4
File size : 2.85 GiB
Duration : 1 h 35 min
Overall bit rate : 4 266 kb/s
Encoded date : UTC 2021-10-01 17:55:18
Writing application : mkvmerge v61.0.0 (‘So’) 64-bit
Writing library : libebml v1.4.2 + libmatroska v1.6.4

Video
ID : 1
Format : AVC
Format/Info : Advanced Video Codec
Format profile : [email protected]
Format settings : CABAC / 3 Ref Frames
Format settings, CABAC : Yes
Format settings, ReFrames : 3 frames
Codec ID : V_MPEG4/ISO/AVC
Duration : 1 h 35 min
Bit rate : 4 096 kb/s
Width : 1 920 pixels
Height : 1 080 pixels
Display aspect ratio : 16:9
Frame rate mode : Constant
Frame rate : 24.000 FPS
Color space : YUV
Chroma subsampling : 4:2:0
Bit depth : 8 bits
Scan type : Progressive
Bits/(Pixel*Frame) : 0.082
Stream size : 2.67 GiB (94%)
Writing library : x264 core 155 r2917 0a84d98
Encoding settings : cabac=1 / ref=3 / deblock=1:0:0 / analyse=0x3:0x113 / me=hex / subme=7 / psy=1 / psy_rd=1.00:0.00 / mixed_ref=1 / me_range=16 / chroma_me=1 / trellis=1 / 8x8dct=1 / cqm=0 / deadzone=21,11 / fast_pskip=1 / chroma_qp_offset=-2 / threads=24 / lookahead_threads=4 / sliced_threads=0 / nr=0 / decimate=1 / interlaced=0 / bluray_compat=0 / constrained_intra=0 / bframes=1 / b_pyramid=0 / b_adapt=1 / b_bias=0 / direct=1 / weightb=1 / open_gop=0 / weightp=2 / keyint=250 / keyint_min=25 / scenecut=40 / intra_refresh=0 / rc_lookahead=40 / rc=abr / mbtree=1 / bitrate=4096 / ratetol=1.0 / qcomp=0.60 / qpmin=0 / qpmax=69 / qpstep=4 / ip_ratio=1.40 / aq=1:1.00
Default : Yes
Forced : No

Audio
ID : 2
Format : AAC LC
Format/Info : Advanced Audio Codec Low Complexity
Codec ID : A_AAC-2
Duration : 1 h 35 min
Bit rate : 265 kb/s
Channel(s) : 2 channels
Channel layout : L R
Sampling rate : 48.0 kHz
Frame rate : 46.875 FPS (1024 SPF)
Compression mode : Lossy
Delay relative to video : -21 ms
Stream size : 184 MiB (6%)
Title : Hindi
Language : English
Default : Yes
Forced : No

Dark World Screenshots:

Dark World

Dark World

Dark World

Dark World

Download 1080p – 2.85GB

For All Hindi Movies Click Here

Facebook Comments Box

Duration: 95 min

Quality: WEB-DL

Release:

IMDb: 4.0

Dark World: Equilibrium 2013 Hindi
Dark World: Equilibrium 2013 Hindi
Dark World: Equilibrium 2013 Hindi
Dark World: Equilibrium 2013 Hindi
Dark World: Equilibrium 2013 Hindi