0
1 Star2 Stars3 Stars4 Stars5 Stars (No Ratings Yet)
Loading...

Deewana 2013 AMZN WEB-DL

Deewana

Romance | 156min | January 18, 2013 (India) 5.6
Director: Rabi KinagiWriter: N.K. SalilStars: Jeet, Srabanti Chatterjee, Biswajit ChakrabortySummary: Abhi (Jeet) is a funloving and extremely popular boy from Phoolbari, a small township in North Bengal. His father Indranath (Biswajit Chakraborty) is a highly respected man in Phoolbari. Agnidev Roy (Bharat Kaul), a dreaded mafia from Kolkata, sends his daughter Shruti (Srabanti) to Phoolbari on a vacation. Binay (Supriyo Dutta) an old aide of Agnidev requests Abhi to receive Shruti at the railway station. Abhi takes an instant liking for Shruti the moment he sets his eyes on her at the railway station. Gradually, Shruti starts to enjoy the company of Abhi and his friends and the fondness between Abhi and Shruti grows. One day, Abhi finds out that Shruti is suffering from 'post traumatic event disorder', since the time she met with a car accident recently. She has no memory of the last three years. When Abhi takes her to a doctor at Phoolbari, the doctor states that Shruti can be cured, but she might not remember anything of her visit to Phoolbari, her friends or even Abhi. Upon hearing this Shruti is disheartened and she persuades Abhi to promise her that he will never leave her, even if she is cured and is not able to remember him. Agnidev Roy gets furious when he learns of Shruti's relationship with Abhi and reaches Phoolbari with his goons. The people of Phoolbari oppose Agnidev. Looking at this situation Agnidev agrees to the engagement of Shruti and Abhi, but cunningly thrashes Abhi at a remote place and takes his daughter back to Kolkata. When Abhi goes to meet Shruti, she fails to recognize him. She is now cured and is set off to be engaged with someone else. But Abhi, had given a word to his beloved that he would never leave her. How he tries relentlessly to convince her and what happens with Shruti forms the rest of the story. —Reliance Entertainment

Photos


See all photos >>

Deewana

Media-Info Deewana

Deewana 2013 Bengali 1080p AMZN WEB-DL DDP2.0 H264 ESub – WiKi-PiKi.mkv
Format : Matroska
Format version : Version 4
File size : 8.91 GiB
Duration : 2 h 35 min
Overall bit rate : 8 202 kb/s
Movie name : GoldminesHD.Club
Encoded date : UTC 2021-09-13 16:40:26
Writing application : mkvmerge v56.1.0 (‘My Friend’) 64-bit
Writing library : libebml v1.4.2 + libmatroska v1.6.4
Attachments : WiKi-PiKi.jpg

Video
ID : 1
Format : AVC
Format/Info : Advanced Video Codec
Format profile : [email protected]
Format settings : CABAC / 4 Ref Frames
Format settings, CABAC : Yes
Format settings, Reference frames : 4 frames
Codec ID : V_MPEG4/ISO/AVC
Duration : 2 h 35 min
Bit rate : 7 976 kb/s
Width : 1 920 pixels
Height : 872 pixels
Display aspect ratio : 2.2:1
Original display aspect ratio : 2.2:1
Frame rate mode : Constant
Frame rate : 24.000 FPS
Color space : YUV
Chroma subsampling : 4:2:0
Bit depth : 8 bits
Scan type : Progressive
Bits/(Pixel*Frame) : 0.199
Stream size : 8.67 GiB (97%)
Title : [email protected]
Default : Yes
Forced : No
Color range : Limited
Color primaries : BT.709
Transfer characteristics : BT.709
Matrix coefficients : BT.709

Audio
ID : 2
Format : E-AC-3
Format/Info : Enhanced AC-3
Commercial name : Dolby Digital Plus
Codec ID : A_EAC3
Duration : 2 h 35 min
Bit rate mode : Constant
Bit rate : 224 kb/s
Channel(s) : 2 channels
Channel layout : L R
Sampling rate : 48.0 kHz
Frame rate : 31.250 FPS (1536 SPF)
Compression mode : Lossy
Delay relative to video : -83 ms
Stream size : 249 MiB (3%)
Title : [email protected]
Language : Bengali
Service kind : Complete Main
Default : Yes
Forced : No

Text
ID : 3
Format : UTF-8
Codec ID : S_TEXT/UTF8
Codec ID/Info : UTF-8 Plain Text
Duration : 2 h 33 min
Bit rate : 76 b/s
Count of elements : 2349
Stream size : 85.5 KiB (0%)
Title : [email protected]
Language : English
Default : Yes
Forced : No

Deewana Screenshots:







































Download 1080p – 8.91GB

Download 720p – 2.12GB

For All Bengali Movies Click Here

Facebook Comments Box

Duration: 156 min

Quality: WEB-DL

Release:

IMDb: 5.7

Deewana 2013 AMZN WEB-DL