0
1 Star2 Stars3 Stars4 Stars5 Stars (No Ratings Yet)
Loading...

Dikkiloona 2021 Tamil

Dikkiloona

Comedy, Romance, Sci-Fi | 144min | September 10, 2021 (India) 6.9
Director: Karthik YogiStars: Santhanam, Anagha L.K., Shirin KanchwalaSummary: A man travels back in time to change his unpleasant past and face the consequences. Where will he finally land up ?

Photos


See all photos >>

Dikkiloona

 

Media-Info Dikkiloona

Dikkiloona.2021.1080p.ZEE5.WEB-DL.AAC2.0.H.264-Telly.mkv
Format : Matroska
Format version : Version 4
File size : 2.34 GiB
Duration : 2 h 24 min
Overall bit rate mode : Variable
Overall bit rate : 2 326 kb/s
Encoded date : UTC 2021-09-09 18:51:32
Writing application : mkvmerge v11.0.0 (‘Alive’) 64bit
Writing library : libebml v1.3.4 + libmatroska v1.4.5

Video
ID : 1
Format : AVC
Format/Info : Advanced Video Codec
Format profile : [email protected]
Format settings : CABAC / 4 Ref Frames
Format settings, CABAC : Yes
Format settings, Reference frames : 4 frames
Codec ID : V_MPEG4/ISO/AVC
Duration : 2 h 24 min
Bit rate mode : Variable
Bit rate : 2 259 kb/s
Maximum bit rate : 4 300 kb/s
Width : 1 920 pixels
Height : 816 pixels
Display aspect ratio : 2.35:1
Frame rate mode : Constant
Frame rate : 25.000 FPS
Color space : YUV
Chroma subsampling : 4:2:0
Bit depth : 8 bits
Scan type : Progressive
Bits/(Pixel*Frame) : 0.058
Stream size : 2.27 GiB (97%)
Default : Yes
Forced : No
Color range : Full
Color primaries : BT.709
Transfer characteristics : BT.709
Matrix coefficients : BT.709

Audio
ID : 2
Format : AAC LC
Format/Info : Advanced Audio Codec Low Complexity
Codec ID : A_AAC-2
Duration : 2 h 24 min
Bit rate : 64.0 kb/s
Channel(s) : 2 channels
Channel layout : L R
Sampling rate : 48.0 kHz
Frame rate : 46.875 FPS (1024 SPF)
Compression mode : Lossy
Stream size : 66.0 MiB (3%)
Language : Tamil
Default : Yes
Forced : No

Text
ID : 3
Format : UTF-8
Codec ID : S_TEXT/UTF8
Codec ID/Info : UTF-8 Plain Text
Duration : 2 h 20 min
Bit rate : 85 b/s
Count of elements : 2973
Stream size : 87.9 KiB (0%)
Language : English
Default : No
Forced : No

Dikkiloona Screenshots:

Dikkiloona

Dikkiloona

Dikkiloona

Dikkiloona

Dikkiloona

Download 1080p – 2.34GB

For All Tamil Movies Click Here

Facebook Comments Box

Duration: N/A

Quality: WEB-DL

Release:

IMDb: N/A

Dikkiloona 2021 Tamil
Dikkiloona 2021 Tamil
Dikkiloona 2021 Tamil
Dikkiloona 2021 Tamil
Dikkiloona 2021 Tamil
Dikkiloona 2021 Tamil
Dikkiloona 2021 Tamil
Dikkiloona 2021 Tamil
Dikkiloona 2021 Tamil