0
1 Star2 Stars3 Stars4 Stars5 Stars (No Ratings Yet)
Loading...

Dracula Sir 2020 AMZN WEB-DL

Dracula Sir

Сэр Дракула Crime, Thriller | 127min | October 21, 2020 (India) 7.5
Director: Debaloy BhattacharyaWriter: Debaloy Bhattacharya, Rohini Ghosh, Kallol LahiriStars: Anirban Bhattacharya, Mimi Chakraborty, Supriyo DuttaSummary: This movie shows the lives of two people, one is Raktim who is a temporary bengali teacher and he has two yard teeth for which people make fun of him, and the other one is Amal who is a Naxal. This movie is about the connection and relationship between the two of them . —iamaditisengupta

Photos


See all photos >>

Dracula Sir

Media-Info Dracula Sir

Dracula Sir 2020 Bengali 1080p AMZN WEB-DL DDP2.0 H264 ESub – WiKi-PiKi.mkv
Format : Matroska
Format version : Version 4
File size : 2.85 GiB
Duration : 2 h 4 min
Overall bit rate : 3 274 kb/s
Movie name : GoldminesHD.Club
Encoded date : UTC 2021-09-23 03:38:45
Writing application : mkvmerge v56.1.0 (‘My Friend’) 64-bit
Writing library : libebml v1.4.2 + libmatroska v1.6.4

Video
ID : 1
Format : AVC
Format/Info : Advanced Video Codec
Format profile : [email protected]
Format settings : CABAC / 4 Ref Frames
Format settings, CABAC : Yes
Format settings, Reference frames : 4 frames
Codec ID : V_MPEG4/ISO/AVC
Duration : 2 h 4 min
Bit rate : 3 048 kb/s
Width : 1 920 pixels
Height : 816 pixels
Display aspect ratio : 2.35:1
Frame rate mode : Constant
Frame rate : 24.000 FPS
Color space : YUV
Chroma subsampling : 4:2:0
Bit depth : 8 bits
Scan type : Progressive
Bits/(Pixel*Frame) : 0.081
Stream size : 2.65 GiB (93%)
Title : [email protected]
Default : Yes
Forced : No
Color range : Limited
Color primaries : BT.709
Transfer characteristics : BT.709
Matrix coefficients : BT.709

Audio
ID : 2
Format : E-AC-3
Format/Info : Enhanced AC-3
Commercial name : Dolby Digital Plus
Codec ID : A_EAC3
Duration : 2 h 4 min
Bit rate mode : Constant
Bit rate : 224 kb/s
Channel(s) : 2 channels
Channel layout : L R
Sampling rate : 48.0 kHz
Frame rate : 31.250 FPS (1536 SPF)
Compression mode : Lossy
Stream size : 199 MiB (7%)
Title : [email protected]
Language : Bengali
Service kind : Complete Main
Default : Yes
Forced : No

Text
ID : 3
Format : UTF-8
Codec ID : S_TEXT/UTF8
Codec ID/Info : UTF-8 Plain Text
Duration : 1 h 59 min
Bit rate : 54 b/s
Count of elements : 1633
Stream size : 48.2 KiB (0%)
Title : [email protected]
Language : English
Default : Yes
Forced : No

Dracula Sir Screenshots:















Download 1080p – 2.85GB

For All Bengali Movies Click Here

Facebook Comments Box

Duration: 127 min

Quality: WEB-DL

Release:

IMDb: 7.5

Dracula Sir 2020 AMZN WEB-DL