0
1 Star2 Stars3 Stars4 Stars5 Stars (No Ratings Yet)
Loading...

Drishyam 2015 WEB-DL

Drishyam

Visual Crime, Drama, Mystery, Thriller | 163min | July 31, 2015 (United States) 8.2
Director: Nishikant KamatWriter: Jeethu Joseph, Upendra SidhayeStars: Ajay Devgn, Shriya Saran, TabuSummary: Vijay Salgaonkar runs a cable TV network in a remote and hilly village of Goa. He lives a happy life with his wife Nandini and two daughters. A 4th grade dropout & an orphan, Vijay has worked his way towards success with his sheer hard-work & street smartness in order to provide for his family who mean the world to him. A man of few means & needs; Vijay believes life is to be lived simplistically - his wife, while she loves him devoutly, wants Vijay's thrifty & miserly behavior to end and wants the world for her family. If there's one thing that Vijay cannot live without, it is his passion for watching films. Such is his 'filmy' obsession that he doesn't mind staying up all night at his office binging on TV movies! In a bizarre turn of events; a teenage boy goes missing; he is the son of a headstrong & no-nonsense cop; IG Meera Deshmukh and the Salgaonkar family is the prime suspect! Will a humble & middle class man, be able to protect his family from oppression of the powerful? How the family weathers the storm that ensues during the violent investigation forms the rest of the story leading to an unexpected & shocking climax. —Dhruvi Dokania

Photos


See all photos >>

Drishyam

Media-Info Drishyam

Drishyam 2015 Hindi 1080p WEB-DL DD5.1 H264 ESub – WiKi-PiKi.mkv
Format : Matroska
Format version : Version 4
File size : 13.6 GiB
Duration : 2 h 37 min
Overall bit rate : 12.4 Mb/s
Movie name : GoldminesHD.Club
Encoded date : UTC 2021-09-23 08:27:23
Writing application : mkvmerge v61.0.0 (‘So’) 64-bit
Writing library : libebml v1.4.2 + libmatroska v1.6.4

Video
ID : 1
Format : AVC
Format/Info : Advanced Video Codec
Format profile : [email protected]
Format settings : CABAC / 4 Ref Frames
Format settings, CABAC : Yes
Format settings, Reference frames : 4 frames
Codec ID : V_MPEG4/ISO/AVC
Duration : 2 h 37 min
Bit rate : 12.0 Mb/s
Width : 1 920 pixels
Height : 816 pixels
Display aspect ratio : 2.35:1
Frame rate mode : Constant
Frame rate : 25.000 FPS
Color space : YUV
Chroma subsampling : 4:2:0
Bit depth : 8 bits
Scan type : Progressive
Bits/(Pixel*Frame) : 0.306
Stream size : 13.1 GiB (97%)
Title : [email protected]
Writing library : x264 core 138
Encoding settings : cabac=1 / ref=4 / deblock=1:0:0 / analyse=0x3:0x133 / me=umh / subme=9 / psy=1 / psy_rd=1.00:0.00 / mixed_ref=1 / me_range=16 / chroma_me=1 / trellis=2 / 8x8dct=1 / cqm=0 / deadzone=21,11 / fast_pskip=1 / chroma_qp_offset=-2 / threads=6 / lookahead_threads=1 / sliced_threads=0 / nr=0 / decimate=1 / interlaced=0 / bluray_compat=0 / constrained_intra=0 / bframes=3 / b_pyramid=0 / b_adapt=2 / b_bias=0 / direct=3 / weightb=1 / open_gop=0 / weightp=2 / keyint=50 / keyint_min=5 / scenecut=0 / intra_refresh=0 / rc_lookahead=50 / rc=abr / mbtree=1 / bitrate=12000 / ratetol=1.0 / qcomp=0.60 / qpmin=0 / qpmax=69 / qpstep=4 / vbv_maxrate=16800 / vbv_bufsize=24000 / nal_hrd=none / filler=0 / ip_ratio=1.40 / aq=1:1.00
Default : Yes
Forced : No

Audio
ID : 2
Format : AC-3
Format/Info : Audio Coding 3
Commercial name : Dolby Digital
Codec ID : A_AC3
Duration : 2 h 37 min
Bit rate mode : Constant
Bit rate : 384 kb/s
Channel(s) : 6 channels
Channel layout : L R C LFE Ls Rs
Sampling rate : 48.0 kHz
Frame rate : 31.250 FPS (1536 SPF)
Compression mode : Lossy
Stream size : 432 MiB (3%)
Title : [email protected]
Language : Hindi
Service kind : Complete Main
Default : Yes
Forced : No

Text
ID : 3
Format : UTF-8
Codec ID : S_TEXT/UTF8
Codec ID/Info : UTF-8 Plain Text
Duration : 2 h 29 min
Bit rate : 61 b/s
Count of elements : 1921
Stream size : 67.3 KiB (0%)
Title : [email protected]
Language : English
Default : Yes
Forced : No

Drishyam Screenshots:



























Download 1080p – 13.56GB

Download 720p – 2.66GB

For All Hindi Movies Click Here

Facebook Comments Box

Duration: 163 min

Quality: WEB-DL

Release:

IMDb: 8.2

Drishyam 2015 WEB-DL
Drishyam 2015 WEB-DL