0
1 Star2 Stars3 Stars4 Stars5 Stars (No Ratings Yet)
Loading...

DumPukht Aatish-e-Ishq 2016 S1 Hindi

DumPukht Aatish-e-Ishq

Dumpukht - Aatish E Ishq Drama | June 30, 2016 (Pakistan) 8.8

Dumpukht

Media-Info DumPukht Aatish-e-Ishq

DumPukht.Aatish-E-Ishq.S01E01.Kulsoom.Procures.an.Amulet.1080p.ZEE5.WEB-DL.AAC2.0.H.264-Telly.mkv
Format : Matroska
Format version : Version 4
File size : 604 MiB
Duration : 37 min 4 s
Overall bit rate : 2 277 kb/s
Encoded date : UTC 2021-09-12 09:10:58
Writing application : mkvmerge v11.0.0 (‘Alive’) 64bit
Writing library : libebml v1.3.4 + libmatroska v1.4.5

Video
ID : 1
Format : AVC
Format/Info : Advanced Video Codec
Format profile : [email protected]
Format settings : CABAC / 4 Ref Frames
Format settings, CABAC : Yes
Format settings, Reference frames : 4 frames
Codec ID : V_MPEG4/ISO/AVC
Duration : 37 min 4 s
Bit rate : 2 200 kb/s
Width : 1 920 pixels
Height : 1 080 pixels
Display aspect ratio : 16:9
Frame rate mode : Constant
Frame rate : 25.000 FPS
Color space : YUV
Chroma subsampling : 4:2:0
Bit depth : 8 bits
Scan type : Progressive
Bits/(Pixel*Frame) : 0.042
Stream size : 577 MiB (96%)
Writing library : x264 core 152 r2854 e9a5903
Encoding settings : cabac=1 / ref=3 / deblock=1:0:0 / analyse=0x3:0x113 / me=hex / subme=7 / psy=1 / psy_rd=1.00:0.00 / mixed_ref=1 / me_range=16 / chroma_me=1 / trellis=1 / 8x8dct=1 / cqm=0 / deadzone=21,11 / fast_pskip=1 / chroma_qp_offset=-2 / threads=34 / lookahead_threads=5 / sliced_threads=0 / nr=0 / decimate=1 / interlaced=0 / bluray_compat=0 / constrained_intra=0 / bframes=3 / b_pyramid=2 / b_adapt=1 / b_bias=0 / direct=1 / weightb=1 / open_gop=0 / weightp=2 / keyint=50 / keyint_min=26 / scenecut=0 / intra_refresh=0 / rc_lookahead=40 / rc=abr / mbtree=1 / bitrate=2200 / ratetol=1.0 / qcomp=0.60 / qpmin=0 / qpmax=69 / qpstep=4 / vbv_maxrate=2860 / vbv_bufsize=3300 / nal_hrd=none / filler=0 / ip_ratio=1.40 / aq=1:1.00
Default : Yes
Forced : No

Audio
ID : 2
Format : AAC LC
Format/Info : Advanced Audio Codec Low Complexity
Codec ID : A_AAC-2
Duration : 37 min 4 s
Bit rate : 96.0 kb/s
Channel(s) : 2 channels
Channel layout : L R
Sampling rate : 48.0 kHz
Frame rate : 46.875 FPS (1024 SPF)
Compression mode : Lossy
Stream size : 25.8 MiB (4%)
Language : Hindi
Default : Yes
Forced : No

Text
ID : 3
Format : UTF-8
Codec ID : S_TEXT/UTF8
Codec ID/Info : UTF-8 Plain Text
Duration : 36 min 43 s
Bit rate : 54 b/s
Count of elements : 489
Stream size : 14.5 KiB (0%)
Language : English
Default : No
Forced : No

Dumpukht Screenshots:

Dumpukht

Dumpukht

Dumpukht

Dumpukht

S1 Single Episode 1080p Download Link:

Download EP – 01 – 603MB

Download EP – 02 – 590MB

Download EP – 03 – 583MB

Download EP – 04 – 595MB

Download EP – 05 – 559MB

Download EP – 06 – 580MB

Download EP – 07 – 597MB

Download EP – 08 – 591MB

Download EP – 09 – 585MB

Download EP – 10 – 577MB

Download EP – 11 – 587MB

Download EP – 12 – 561MB

Download EP – 13 – 573MB

Download EP – 14 – 571MB

Download EP – 15 – 582MB

Download EP – 16 – 578MB

Download EP – 17 – 580MB

Downlaod EP – 18 – 579MB

Download EP – 19 – 574MB

Download EP – 20 – 573MB

Download EP – 21 – 576MB

Download EP – 22 – 581MB

Download EP – 23 – 566MB

Download EP – 24 – 557MB

Download EP – 25 – 549MB

Download EP – 26 – 568MB

Download EP – 27 – 593MB

S1 Complete Series 1080p Zip File Download Link:

Download – 15.25GB

For All TV-Series Click Here

Facebook Comments Box

Views: 11

Genre: DramaTV-Series

Director:

Actors: , ,

Country:

Duration: N/A

Quality: WEB-DL

Release:

IMDb: 8.5