0
1 Star2 Stars3 Stars4 Stars5 Stars (No Ratings Yet)
Loading...

Dwitiyo Purush 2020 AMZN WEB-DL

Dwitiyo Purush

Drama, Mystery, Thriller | 129min | March 6, 2020 (United States) 6.1
Director: Srijit MukherjiWriter: Rohini Ghosh, Mani Shankar MukherjeeStars: Raima Sen, Anirban Bhattacharya, Srijit MukherjiSummary: Dwitiyo Purush is a sequel of Baishe Srabon where Prosenjit Chatterjee dies at the end. In this film we will see Parambrata Chattopadhyay as a police inspector who follows the path that Prasenjit Chatterjee showed him in Baishe Srabon to fight with criminals in various regions of kolkata.

Photos


See all photos >>

Dwitiyo Purush

Media-Info Dwitiyo Purush

Dwitiyo.Purush.2020.1080p.AMZN.WEB-DL.DDP2.0.H.264-Telly.mkv
Format : Matroska
Format version : Version 4
File size : 5.77 GiB
Duration : 2 h 7 min
Overall bit rate mode : Constant
Overall bit rate : 6 456 kb/s
Movie name : Telly
Encoded date : UTC 2021-09-26 18:38:28
Writing application : mkvmerge v59.0.0 (‘Shining Star’) 64-bit
Writing library : libebml v1.4.2 + libmatroska v1.6.4

Video
ID : 1
Format : AVC
Format/Info : Advanced Video Codec
Format profile : [email protected]
Format settings : CABAC / 4 Ref Frames
Format settings, CABAC : Yes
Format settings, Reference frames : 4 frames
Codec ID : V_MPEG4/ISO/AVC
Duration : 2 h 7 min
Bit rate mode : Constant
Bit rate : 6 230 kb/s
Nominal bit rate : 10 000 kb/s
Width : 1 920 pixels
Height : 800 pixels
Display aspect ratio : 2.40:1
Frame rate mode : Constant
Frame rate : 24.000 FPS
Color space : YUV
Chroma subsampling : 4:2:0
Bit depth : 8 bits
Scan type : Progressive
Bits/(Pixel*Frame) : 0.169
Stream size : 5.57 GiB (97%)
Default : Yes
Forced : No
Color range : Limited
Color primaries : BT.709
Transfer characteristics : BT.709
Matrix coefficients : BT.709

Audio
ID : 2
Format : E-AC-3
Format/Info : Enhanced AC-3
Commercial name : Dolby Digital Plus
Codec ID : A_EAC3
Duration : 2 h 7 min
Bit rate mode : Constant
Bit rate : 224 kb/s
Channel(s) : 2 channels
Channel layout : L R
Sampling rate : 48.0 kHz
Frame rate : 31.250 FPS (1536 SPF)
Compression mode : Lossy
Stream size : 205 MiB (3%)
Title : Bengali
Language : Bengali
Service kind : Complete Main
Default : No
Forced : No

Dwitiyo Purush Screenshots:

Dwitiyo Purush

Dwitiyo Purush

Dwitiyo Purush

Dwitiyo Purush

Download 1080p – 5.77GB

For All Bengali Movies Click Here

Facebook Comments Box

Duration: 129 min

Quality: WEB-DL

Release:

IMDb: 6.1

Dwitiyo Purush 2020 AMZN WEB-DL
Dwitiyo Purush 2020 AMZN WEB-DL