0
1 Star2 Stars3 Stars4 Stars5 Stars (No Ratings Yet)
Loading...

Elite -TV Series 2018

Elite – TV series 2018

Elite - TV series 2018

Elite is a Spanish thriller teen drama television series created for Netflix by Carlos Montero and Darío Madrona.

Élite Crime, Drama, Thriller | 60min | October 5, 2018 (United States) 7.5
Writer: Darío Madrona, Carlos MonteroStars: Itzan Escamilla, Omar Ayuso, Miguel BernardeauSummary: Las Encinas is the most exclusive school in the country- where the Elite sends their children to study. In there, three working-class teens have just been admitted after an earthquake destroyed their school. The clash between those who have everything and those who have nothing to lose creates a perfect storm that ends in a murder. Who committed the crime? —FórmulaTV

Photos


See all photos >>

General
Complete name : Elite.S03.1080p.NF.WEB-DL.HIN-Multi.DD+5.1.x264-Telly\Elite.S03E01.Carla.1080p.NF.WEB-DL.DD+5.1.x264-Telly.mkv
Format : Matroska
Format version : Version 4
File size : 3.22 GiB
Duration : 48 min 50 s
Overall bit rate mode : Variable
Overall bit rate : 9 436 kb/s
Movie name : Telly
Encoded date : UTC 2021-08-30 10:32:21
Writing application : mkvmerge v59.0.0 (‘Shining Star’) 64-bit
Writing library : libebml v1.4.2 + libmatroska v1.6.4

Video
ID : 1
Format : AVC
Format/Info : Advanced Video Codec
Format profile : [email protected]
Format settings : CABAC / 4 Ref Frames
Format settings, CABAC : Yes
Format settings, Reference frames : 4 frames
Codec ID : V_MPEG4/ISO/AVC
Duration : 48 min 49 s
Bit rate mode : Variable
Bit rate : 6 872 kb/s
Maximum bit rate : 20.0 Mb/s
Width : 1 920 pixels
Height : 1 080 pixels
Display aspect ratio : 16:9
Frame rate mode : Constant
Frame rate : 25.000 FPS
Color space : YUV
Chroma subsampling : 4:2:0
Bit depth : 8 bits
Scan type : Progressive
Bits/(Pixel*Frame) : 0.133
Stream size : 2.34 GiB (73%)
Default : Yes
Forced : No

Audio #1
ID : 2
Format : E-AC-3
Format/Info : Enhanced AC-3
Commercial name : Dolby Digital Plus
Codec ID : A_EAC3
Duration : 48 min 50 s
Bit rate mode : Constant
Bit rate : 640 kb/s
Channel(s) : 6 channels
Channel layout : L R C LFE Ls Rs
Sampling rate : 48.0 kHz
Frame rate : 31.250 FPS (1536 SPF)
Compression mode : Lossy
Stream size : 224 MiB (7%)
Title : Hindi
Language : Hindi
Service kind : Complete Main
Default : Yes
Forced : No

Audio #2
ID : 3
Format : E-AC-3
Format/Info : Enhanced AC-3
Commercial name : Dolby Digital Plus
Codec ID : A_EAC3
Duration : 48 min 50 s
Bit rate mode : Constant
Bit rate : 640 kb/s
Channel(s) : 6 channels
Channel layout : L R C LFE Ls Rs
Sampling rate : 48.0 kHz
Frame rate : 31.250 FPS (1536 SPF)
Compression mode : Lossy
Stream size : 224 MiB (7%)
Title : Tamil
Language : Tamil
Service kind : Complete Main
Default : No
Forced : No

Audio #3
ID : 4
Format : E-AC-3
Format/Info : Enhanced AC-3
Commercial name : Dolby Digital Plus
Codec ID : A_EAC3
Duration : 48 min 50 s
Bit rate mode : Constant
Bit rate : 640 kb/s
Channel(s) : 6 channels
Channel layout : L R C LFE Ls Rs
Sampling rate : 48.0 kHz
Frame rate : 31.250 FPS (1536 SPF)
Compression mode : Lossy
Stream size : 224 MiB (7%)
Title : Telugu
Language : Telugu
Service kind : Complete Main
Default : No
Forced : No

Audio #4
ID : 5
Format : E-AC-3
Format/Info : Enhanced AC-3
Commercial name : Dolby Digital Plus
Codec ID : A_EAC3
Duration : 48 min 50 s
Bit rate mode : Constant
Bit rate : 640 kb/s
Channel(s) : 6 channels
Channel layout : L R C LFE Ls Rs
Sampling rate : 48.0 kHz
Frame rate : 31.250 FPS (1536 SPF)
Compression mode : Lossy
Stream size : 224 MiB (7%)
Title : English
Language : English
Service kind : Complete Main
Default : No
Forced : No

Text #1
ID : 6
Format : UTF-8
Codec ID : S_TEXT/UTF8
Codec ID/Info : UTF-8 Plain Text
Duration : 47 min 26 s
Bit rate : 61 b/s
Count of elements : 574
Stream size : 21.3 KiB (0%)
Title : English
Language : English
Default : No
Forced : No

Text #2
ID : 7
Format : UTF-8
Codec ID : S_TEXT/UTF8
Codec ID/Info : UTF-8 Plain Text
Duration : 47 min 26 s
Bit rate : 61 b/s
Count of elements : 574
Stream size : 21.3 KiB (0%)
Title : English
Language : English
Default : No
Forced : No

Text #3
ID : 8
Format : UTF-8
Codec ID : S_TEXT/UTF8
Codec ID/Info : UTF-8 Plain Text
Duration : 47 min 39 s
Bit rate : 101 b/s
Count of elements : 605
Stream size : 35.6 KiB (0%)
Title : Arabic
Language : Arabic
Default : No
Forced : No

Text #4
ID : 9
Format : UTF-8
Codec ID : S_TEXT/UTF8
Codec ID/Info : UTF-8 Plain Text
Duration : 47 min 39 s
Bit rate : 64 b/s
Count of elements : 606
Stream size : 22.6 KiB (0%)
Title : Chinese Simplified
Language : Chinese
Default : No
Forced : No

Text #5
ID : 10
Format : UTF-8
Codec ID : S_TEXT/UTF8
Codec ID/Info : UTF-8 Plain Text
Duration : 47 min 39 s
Bit rate : 55 b/s
Count of elements : 745
Stream size : 19.2 KiB (0%)
Title : Chinese Traditional
Language : Chinese
Default : No
Forced : No

Text #6
ID : 11
Format : UTF-8
Codec ID : S_TEXT/UTF8
Codec ID/Info : UTF-8 Plain Text
Duration : 47 min 39 s
Bit rate : 49 b/s
Count of elements : 621
Stream size : 17.4 KiB (0%)
Title : Croatian
Language : Croatian
Default : No
Forced : No

Text #7
ID : 12
Format : UTF-8
Codec ID : S_TEXT/UTF8
Codec ID/Info : UTF-8 Plain Text
Duration : 47 min 39 s
Bit rate : 56 b/s
Count of elements : 600
Stream size : 19.8 KiB (0%)
Title : Czech
Language : Czech
Default : No
Forced : No

Text #8
ID : 13
Format : UTF-8
Codec ID : S_TEXT/UTF8
Codec ID/Info : UTF-8 Plain Text
Duration : 47 min 37 s
Bit rate : 54 b/s
Count of elements : 588
Stream size : 19.1 KiB (0%)
Title : Danish
Language : Danish
Default : No
Forced : No

Text #9
ID : 14
Format : UTF-8
Codec ID : S_TEXT/UTF8
Codec ID/Info : UTF-8 Plain Text
Duration : 47 min 39 s
Bit rate : 51 b/s
Count of elements : 554
Stream size : 18.1 KiB (0%)
Title : Dutch
Language : Dutch
Default : No
Forced : No

Text #10
ID : 15
Format : UTF-8
Codec ID : S_TEXT/UTF8
Codec ID/Info : UTF-8 Plain Text
Duration : 47 min 39 s
Bit rate : 52 b/s
Count of elements : 580
Stream size : 18.4 KiB (0%)
Title : Finnish
Language : Finnish
Default : No
Forced : No

Text #11
ID : 16
Format : UTF-8
Codec ID : S_TEXT/UTF8
Codec ID/Info : UTF-8 Plain Text
Duration : 47 min 39 s
Bit rate : 61 b/s
Count of elements : 602
Stream size : 21.4 KiB (0%)
Title : French
Language : French
Default : No
Forced : No

Text #12
ID : 17
Format : UTF-8
Codec ID : S_TEXT/UTF8
Codec ID/Info : UTF-8 Plain Text
Duration : 47 min 39 s
Bit rate : 54 b/s
Count of elements : 561
Stream size : 19.1 KiB (0%)
Title : German
Language : German
Default : No
Forced : No

Text #13
ID : 18
Format : UTF-8
Codec ID : S_TEXT/UTF8
Codec ID/Info : UTF-8 Plain Text
Duration : 47 min 39 s
Bit rate : 99 b/s
Count of elements : 619
Stream size : 34.8 KiB (0%)
Title : Greek
Language : Greek
Default : No
Forced : No

Text #14
ID : 19
Format : UTF-8
Codec ID : S_TEXT/UTF8
Codec ID/Info : UTF-8 Plain Text
Duration : 47 min 39 s
Bit rate : 102 b/s
Count of elements : 599
Stream size : 36.0 KiB (0%)
Title : Hebrew
Language : Hebrew
Default : No
Forced : No

Text #15
ID : 20
Format : UTF-8
Codec ID : S_TEXT/UTF8
Codec ID/Info : UTF-8 Plain Text
Duration : 47 min 39 s
Bit rate : 54 b/s
Count of elements : 599
Stream size : 19.0 KiB (0%)
Title : Hungarian
Language : Hungarian
Default : No
Forced : No

Text #16
ID : 21
Format : UTF-8
Codec ID : S_TEXT/UTF8
Codec ID/Info : UTF-8 Plain Text
Duration : 47 min 39 s
Bit rate : 54 b/s
Count of elements : 604
Stream size : 18.9 KiB (0%)
Title : Indonesian
Language : Indonesian
Default : No
Forced : No

Text #17
ID : 22
Format : UTF-8
Codec ID : S_TEXT/UTF8
Codec ID/Info : UTF-8 Plain Text
Duration : 47 min 39 s
Bit rate : 57 b/s
Count of elements : 586
Stream size : 19.9 KiB (0%)
Title : Italian
Language : Italian
Default : No
Forced : No

Text #18
ID : 23
Format : UTF-8
Codec ID : S_TEXT/UTF8
Codec ID/Info : UTF-8 Plain Text
Duration : 47 min 39 s
Bit rate : 50 b/s
Count of elements : 658
Stream size : 17.5 KiB (0%)
Title : Japanese
Language : Japanese
Default : No
Forced : No

Text #19
ID : 24
Format : UTF-8
Codec ID : S_TEXT/UTF8
Codec ID/Info : UTF-8 Plain Text
Duration : 47 min 39 s
Bit rate : 74 b/s
Count of elements : 609
Stream size : 25.9 KiB (0%)
Title : Korean
Language : Korean
Default : No
Forced : No

Text #20
ID : 25
Format : UTF-8
Codec ID : S_TEXT/UTF8
Codec ID/Info : UTF-8 Plain Text
Duration : 47 min 39 s
Bit rate : 60 b/s
Count of elements : 607
Stream size : 21.3 KiB (0%)
Title : Malay
Language : Malay
Default : No
Forced : No

Text #21
ID : 26
Format : UTF-8
Codec ID : S_TEXT/UTF8
Codec ID/Info : UTF-8 Plain Text
Duration : 47 min 39 s
Bit rate : 55 b/s
Count of elements : 551
Stream size : 19.5 KiB (0%)
Title : Norwegian Bokmal
Language : Norwegian Bokmal
Default : No
Forced : No

Text #22
ID : 27
Format : UTF-8
Codec ID : S_TEXT/UTF8
Codec ID/Info : UTF-8 Plain Text
Duration : 47 min 39 s
Bit rate : 57 b/s
Count of elements : 609
Stream size : 20.2 KiB (0%)
Title : Polish
Language : Polish
Default : No
Forced : No

Text #23
ID : 28
Format : UTF-8
Codec ID : S_TEXT/UTF8
Codec ID/Info : UTF-8 Plain Text
Duration : 47 min 39 s
Bit rate : 60 b/s
Count of elements : 604
Stream size : 21.1 KiB (0%)
Title : Portuguese
Language : Portuguese
Default : No
Forced : No

Text #24
ID : 29
Format : UTF-8
Codec ID : S_TEXT/UTF8
Codec ID/Info : UTF-8 Plain Text
Duration : 47 min 39 s
Bit rate : 52 b/s
Count of elements : 592
Stream size : 18.3 KiB (0%)
Title : Brazilian Portuguese
Language : Portuguese
Default : No
Forced : No

Text #25
ID : 30
Format : UTF-8
Codec ID : S_TEXT/UTF8
Codec ID/Info : UTF-8 Plain Text
Duration : 47 min 39 s
Bit rate : 61 b/s
Count of elements : 583
Stream size : 21.5 KiB (0%)
Title : Romanian
Language : Romanian
Default : No
Forced : No

Text #26
ID : 31
Format : UTF-8
Codec ID : S_TEXT/UTF8
Codec ID/Info : UTF-8 Plain Text
Duration : 47 min 39 s
Bit rate : 89 b/s
Count of elements : 596
Stream size : 31.1 KiB (0%)
Title : Russian
Language : Russian
Default : No
Forced : No

Text #27
ID : 32
Format : UTF-8
Codec ID : S_TEXT/UTF8
Codec ID/Info : UTF-8 Plain Text
Duration : 47 min 37 s
Bit rate : 90 b/s
Count of elements : 663
Stream size : 31.5 KiB (0%)
Title : European Spanish
Language : Spanish
Default : No
Forced : No

Text #28
ID : 33
Format : UTF-8
Codec ID : S_TEXT/UTF8
Codec ID/Info : UTF-8 Plain Text
Duration : 47 min 39 s
Bit rate : 57 b/s
Count of elements : 520
Stream size : 20.0 KiB (0%)
Title : Swedish
Language : Swedish
Default : No
Forced : No

Text #29
ID : 34
Format : UTF-8
Codec ID : S_TEXT/UTF8
Codec ID/Info : UTF-8 Plain Text
Duration : 47 min 39 s
Bit rate : 141 b/s
Count of elements : 612
Stream size : 49.3 KiB (0%)
Title : Thai
Language : Thai
Default : No
Forced : No

Text #30
ID : 35
Format : UTF-8
Codec ID : S_TEXT/UTF8
Codec ID/Info : UTF-8 Plain Text
Duration : 47 min 37 s
Bit rate : 62 b/s
Count of elements : 611
Stream size : 21.8 KiB (0%)
Title : Turkish
Language : Turkish
Default : No
Forced : No

Text #31
ID : 36
Format : UTF-8
Codec ID : S_TEXT/UTF8
Codec ID/Info : UTF-8 Plain Text
Duration : 45 min 49 s
Bit rate : 80 b/s
Count of elements : 631
Stream size : 27.1 KiB (0%)
Title : Vietnamese
Language : Vietnamese
Default : No
Forced : No









Elite Season 1

Download 1080p

Season 1 Episode 1                    Season 1 Episode 2

Season 1 Episode 3                   Season 1 Episode 4

Season 1 Episode 5                   Season 1 Episode 6

Season 1 Episode 7                   Season 1 Episode 8

Elite Season 2

Download 1080p

Season 2 Episode 1                    Season 2 Episode 2

Season 2 Episode 3                   Season 2 Episode 4

Season 2 Episode 5                   Season 2 Episode 6

Season 2 Episode 7                   Season 2 Episode 8

 

Elite Season 3

Download 1080p

Season 3 Episode 1                    Season 3 Episode 2

Season 3 Episode 3                   Season 3 Episode 4

Season 3 Episode 5                   Season 3 Episode 6

Season 3 Episode 7                   Season 3 Episode 8

Elite Season 4

Download 1080p

Season 4 Episode 1                    Season 4 Episode 2

Season 4 Episode 3                   Season 4 Episode 4

Season 4 Episode 5                   Season 4 Episode 6

Season 4 Episode 7                   Season 4 Episode 8

 

 
GoldminesHD facebook group

 

GoldminesHD Telegram Channel

More TV Series

Facebook Comments Box

Views: 21

Genre: TV-Series

Director:

Country:

Duration: 60 min

Release:

IMDb: 7.5