0
1 Star2 Stars3 Stars4 Stars5 Stars (No Ratings Yet)
Loading...

Free Guy 2021 WEB-DL

Free Guy

A bank teller discovers that he’s actually an NPC inside a brutal, open world video game.

Giải Cứu 'Guy' Action, Adventure, Comedy, Fantasy, Sci-Fi | 115min | August 13, 2021 (United States) 7.6
Director: Shawn LevyWriter: Matt Lieberman, Zak PennStars: Ryan Reynolds, Jodie Comer, Taika WaititiSummary: A bank teller discovers that he's actually an NPC inside a brutal, open world video game.

Photos


See all photos >>

Free Guy

Media-Info Free Guy

Free.Guy.2021.1080p.WEB-DL.DDP.5.1.H.264-Telly.mkv
Format : Matroska
Format version : Version 4
File size : 11.6 GiB
Duration : 1 h 49 min
Overall bit rate : 15.1 Mb/s
Movie name : Telly
Encoded date : UTC 2021-09-23 07:05:36
Writing application : mkvmerge v61.0.0 (‘So’) 64-bit
Writing library : libebml v1.4.2 + libmatroska v1.6.4

Video
ID : 1
Format : AVC
Format/Info : Advanced Video Codec
Format profile : [email protected]
Format settings : CABAC / 3 Ref Frames
Format settings, CABAC : Yes
Format settings, Reference frames : 3 frames
Codec ID : V_MPEG4/ISO/AVC
Duration : 1 h 49 min
Bit rate : 14.7 Mb/s
Width : 1 920 pixels
Height : 784 pixels
Display aspect ratio : 2.40:1
Frame rate mode : Constant
Frame rate : 25.000 FPS
Standard : NTSC
Color space : YUV
Chroma subsampling : 4:2:0
Bit depth : 8 bits
Scan type : Progressive
Bits/(Pixel*Frame) : 0.391
Stream size : 11.3 GiB (97%)
Default : Yes
Forced : No
Color range : Limited
Color primaries : BT.709
Transfer characteristics : BT.709
Matrix coefficients : BT.709

Audio
ID : 2
Format : E-AC-3
Format/Info : Enhanced AC-3
Commercial name : Dolby Digital Plus
Codec ID : A_EAC3
Duration : 1 h 49 min
Bit rate mode : Constant
Bit rate : 384 kb/s
Channel(s) : 6 channels
Channel layout : L R C LFE Ls Rs
Sampling rate : 48.0 kHz
Frame rate : 31.250 FPS (1536 SPF)
Compression mode : Lossy
Delay relative to video : 59 ms
Stream size : 301 MiB (3%)
Language : English
Service kind : Complete Main
Default : No
Forced : No

Free Guy Screenshots:

Free Guy

Free Guy

Free Guy

Free Guy

English Audio Download Link:

Download 1080p WEB-DL – 11.58GB

Download 1080p WEB-RIP – 4.7GB

Hindi-Multi Audio Download Link:

Download 1080p – 3.26GB

Download 720p – 1.66GB

For All English Movies Click Here

Facebook Comments Box

Duration: 115 min

Quality: WEB-DL

Release:

IMDb: 7.6

Free Guy 2021 WEB-DL
Free Guy 2021 WEB-DL
Free Guy 2021 WEB-DL
Free Guy 2021 WEB-DL
Free Guy 2021 WEB-DL
Free Guy 2021 WEB-DL
Free Guy 2021 WEB-DL
Free Guy 2021 WEB-DL
Free Guy 2021 WEB-DL
Free Guy 2021 WEB-DL
Free Guy 2021 WEB-DL
Free Guy 2021 WEB-DL
Free Guy 2021 WEB-DL
Free Guy 2021 WEB-DL
Free Guy 2021 WEB-DL
Free Guy 2021 WEB-DL
Free Guy 2021 WEB-DL
Free Guy 2021 WEB-DL
Free Guy 2021 WEB-DL
Free Guy 2021 WEB-DL