0
1 Star2 Stars3 Stars4 Stars5 Stars (No Ratings Yet)
Loading...

Friendship 2021 Tamil AMZN WEB-DL

Friendship

Crime, Drama, Mystery | 140min | September 17, 2021 (India) 6.7
Director: John Paul Raj, Sham SuryaWriter: P.S. RajStars: Arjun Sarja, Sathish, M.S. BhaskarSummary: Set in college, Friendship is an emotional saga where two friends go out of their way to help a girl get justice, who is sexually abused and killed by goons. Will they succeed? After all, justice delayed is justice denied.

Photos


See all photos >>

Friendship

Media-Info Friendship

Friendship 2021 Tamil 1080p AMZN WEB-DL DDP5.1 H264 ESub – WiKi-PiKi.mkv
Format : Matroska
Format version : Version 4
File size : 7.94 GiB
Duration : 1 h 53 min
Overall bit rate : 10.0 Mb/s
Movie name : GoldminesHD.Club
Encoded date : UTC 2021-10-16 02:44:44
Writing application : mkvmerge v43.0.0 (‘The Quartermaster’) 64-bit
Writing library : libebml v1.3.10 + libmatroska v1.5.2

Video
ID : 1
Format : AVC
Format/Info : Advanced Video Codec
Format profile : [email protected]
Format settings : CABAC / 4 Ref Frames
Format settings, CABAC : Yes
Format settings, Reference frames : 4 frames
Codec ID : V_MPEG4/ISO/AVC
Duration : 1 h 53 min
Bit rate mode : Constant
Bit rate : 9 379 kb/s
Nominal bit rate : 10 000 kb/s
Width : 1 920 pixels
Height : 816 pixels
Display aspect ratio : 2.35:1
Frame rate mode : Constant
Frame rate : 25.000 FPS
Color space : YUV
Chroma subsampling : 4:2:0
Bit depth : 8 bits
Scan type : Progressive
Bits/(Pixel*Frame) : 0.239
Stream size : 7.43 GiB (94%)
Title : [email protected]
Default : Yes
Forced : No
Color range : Limited
Color primaries : BT.709
Transfer characteristics : BT.709
Matrix coefficients : BT.709

Audio
ID : 2
Format : E-AC-3
Format/Info : Enhanced AC-3
Commercial name : Dolby Digital Plus
Codec ID : A_EAC3
Duration : 1 h 53 min
Bit rate mode : Constant
Bit rate : 640 kb/s
Channel(s) : 6 channels
Channel layout : L R C LFE Ls Rs
Sampling rate : 48.0 kHz
Frame rate : 31.250 FPS (1536 SPF)
Compression mode : Lossy
Stream size : 520 MiB (6%)
Title : [email protected]
Language : Tamil
Service kind : Complete Main
Default : Yes
Forced : No

Text
ID : 3
Format : UTF-8
Codec ID : S_TEXT/UTF8
Codec ID/Info : UTF-8 Plain Text
Duration : 1 h 51 min
Bit rate : 60 b/s
Count of elements : 1579
Stream size : 49.4 KiB (0%)
Title : [email protected]
Language : English
Default : Yes
Forced : No

Friendship Screenshots:
















AMZN WEB-DL

Download 1080p – 7.94GB

SS WEB-DL Team Telly

Download 1080p – 3.09GB

For All Tamil Movies Click Here

Facebook Comments Box

Duration: 140 min

Quality: WEB-DL

Release:

IMDb: 7.4

Friendship 2021 Tamil AMZN WEB-DL