0
1 Star2 Stars3 Stars4 Stars5 Stars (No Ratings Yet)
Loading...

Gangster 2016 AMZN WEB-DL

Gangster

गैंगस्टर Romance | 141min | October 7, 2016 (India) 5.2
Director: Birsa DasguptaWriter: Manish SharmaStars: Bratya Basu, Mimi Chakraborty, Saurav DasSummary: Gangster is an Indian (Bengali) film of romance thriller genre directed by Birsa Dasgupta with Yash Dasgupta and Mimi Chakraborty in the lead. A tale of love, passion, heartbreaks and revenge which forms the crux of the story. The film was extensively shot in various locations of Turkey and some portions in Kolkata. -Padmashri

Photos


See all photos >>

Gangster

Media-Info Gangster

Gangster 2016 Bengali 1080p AMZN WEB-DL DDP2.0 H264 – WiKi-PiKi.mkv
Format : Matroska
Format version : Version 4
File size : 9.56 GiB
Duration : 2 h 19 min
Overall bit rate : 9 816 kb/s
Movie name : GoldminesHD.Club
Encoded date : UTC 2021-10-03 20:33:08
Writing application : mkvmerge v56.1.0 (‘My Friend’) 64-bit
Writing library : libebml v1.4.2 + libmatroska v1.6.4

Video
ID : 1
Format : AVC
Format/Info : Advanced Video Codec
Format profile : [email protected]
Format settings : CABAC / 4 Ref Frames
Format settings, CABAC : Yes
Format settings, Reference frames : 4 frames
Codec ID : V_MPEG4/ISO/AVC
Duration : 2 h 19 min
Bit rate : 9 590 kb/s
Width : 1 920 pixels
Height : 816 pixels
Display aspect ratio : 2.35:1
Frame rate mode : Constant
Frame rate : 24.000 FPS
Color space : YUV
Chroma subsampling : 4:2:0
Bit depth : 8 bits
Scan type : Progressive
Bits/(Pixel*Frame) : 0.255
Stream size : 9.34 GiB (98%)
Title : [email protected]
Default : Yes
Forced : No
Color range : Limited
Color primaries : BT.709
Transfer characteristics : BT.709
Matrix coefficients : BT.709

Audio
ID : 2
Format : E-AC-3
Format/Info : Enhanced AC-3
Commercial name : Dolby Digital Plus
Codec ID : A_EAC3
Duration : 2 h 19 min
Bit rate mode : Constant
Bit rate : 224 kb/s
Channel(s) : 2 channels
Channel layout : L R
Sampling rate : 48.0 kHz
Frame rate : 31.250 FPS (1536 SPF)
Compression mode : Lossy
Delay relative to video : -83 ms
Stream size : 223 MiB (2%)
Title : [email protected]
Language : Bengali
Service kind : Complete Main
Default : Yes
Forced : No

Gangster Screenshots:


















Download 1080p – 9.56GB

For All Bengali Movies Click Here

Facebook Comments Box

Duration: 141 min

Quality: WEB-DL

Release:

IMDb: 5.2