5
1 Star2 Stars3 Stars4 Stars5 Stars (1 votes, average: 5.00 out of 5)
Loading...

Gangster 2021

Gangster 2021

Gangster 2021

General
Complete name : Gangster 2021 1080p WEB-DL H264 AAC D0T-Telly.mkv
Format : Matroska
Format version : Version 4
File size : 5.06 GiB
Duration : 1 h 29 min
Overall bit rate : 8 130 kb/s
Movie name : GoldminesHD.Club
Encoded date : UTC 2021-09-20 14:56:54
Writing application : mkvmerge v59.0.0 (‘Shining Star’) 64-bit
Writing library : libebml v1.4.2 + libmatroska v1.6.4

Video
ID : 1
Format : AVC
Format/Info : Advanced Video Codec
Format profile : [email protected]
Format settings : CABAC / 4 Ref Frames
Format settings, CABAC : Yes
Format settings, Reference frames : 4 frames
Codec ID : V_MPEG4/ISO/AVC
Duration : 1 h 29 min
Bit rate : 8 000 kb/s
Width : 1 920 pixels
Height : 816 pixels
Display aspect ratio : 2.35:1
Frame rate mode : Constant
Frame rate : 25.000 FPS
Color space : YUV
Chroma subsampling : 4:2:0
Bit depth : 8 bits
Scan type : Progressive
Bits/(Pixel*Frame) : 0.204
Stream size : 4.94 GiB (98%)
Default : Yes
Forced : No

Audio
ID : 6
Format : AAC LC
Format/Info : Advanced Audio Codec Low Complexity
Codec ID : A_AAC-2
Duration : 1 h 29 min
Bit rate : 192 kb/s
Channel(s) : 2 channels
Channel layout : L R
Sampling rate : 48.0 kHz
Frame rate : 46.875 FPS (1024 SPF)
Compression mode : Lossy
Stream size : 122 MiB (2%)
Language : English
Default : Yes
Forced : No












Download 1080p – 5.06GB

For All Hindi Movies Click Here

Facebook Comments Box

Views: 38

Genre: Uncategorized

Duration:

Release: