0
1 Star2 Stars3 Stars4 Stars5 Stars (No Ratings Yet)
Loading...

Ghawre Bairey Aaj 2019 AMZN WEB-DL

Ghawre Bairey Aaj

The Home & the World Today Drama | 146min | November 15, 2019 (India) 6.3
Director: Aparna SenWriter: Rohini GhoshStars: Anirban Bhattacharya, Tuhina Das, Rwitobroto MukherjeeSummary: Ghawre Bairey Aaj is inspired by Rabindranath Tagore's novel 'Ghawre Bairey' (Home and the World) and is a contemporary retelling of love triangle involving Tagore's characters Nikhilesh, Sandip and Bimala.

Ghawre Bairey Aaj

Media-Info Ghawre Bairey Aaj

Ghawre Bairey Aaj 2019 Bengali 1080p AMZN WEB-DL DDP5.1 H264 MSub – WiKi-PiKi.mkv
Format : Matroska
Format version : Version 4
File size : 5.72 GiB
Duration : 2 h 13 min
Overall bit rate : 6 109 kb/s
Movie name : GoldminesHD.Club
Encoded date : UTC 2021-09-14 03:52:06
Writing application : mkvmerge v56.1.0 (‘My Friend’) 64-bit
Writing library : libebml v1.4.2 + libmatroska v1.6.4
Attachments : WiKi-PiKi.jpg

Video
ID : 1
Format : AVC
Format/Info : Advanced Video Codec
Format profile : [email protected]
Format settings : CABAC / 4 Ref Frames
Format settings, CABAC : Yes
Format settings, Reference frames : 4 frames
Codec ID : V_MPEG4/ISO/AVC
Duration : 2 h 13 min
Bit rate : 5 466 kb/s
Width : 1 920 pixels
Height : 816 pixels
Display aspect ratio : 2.35:1
Frame rate mode : Constant
Frame rate : 24.000 FPS
Color space : YUV
Chroma subsampling : 4:2:0
Bit depth : 8 bits
Scan type : Progressive
Bits/(Pixel*Frame) : 0.145
Stream size : 5.12 GiB (89%)
Title : [email protected]
Default : Yes
Forced : No
Color range : Limited
Color primaries : BT.709
Transfer characteristics : BT.709
Matrix coefficients : BT.709

Audio
ID : 2
Format : E-AC-3
Format/Info : Enhanced AC-3
Commercial name : Dolby Digital Plus
Codec ID : A_EAC3
Duration : 2 h 13 min
Bit rate mode : Constant
Bit rate : 640 kb/s
Channel(s) : 6 channels
Channel layout : L R C LFE Ls Rs
Sampling rate : 48.0 kHz
Frame rate : 31.250 FPS (1536 SPF)
Compression mode : Lossy
Stream size : 613 MiB (10%)
Title : [email protected]
Language : Bengali
Service kind : Complete Main
Default : Yes
Forced : No

Text #1
ID : 3
Format : UTF-8
Codec ID : S_TEXT/UTF8
Codec ID/Info : UTF-8 Plain Text
Duration : 2 h 6 min
Bit rate : 58 b/s
Count of elements : 1781
Stream size : 54.3 KiB (0%)
Title : [email protected]
Language : English
Default : Yes
Forced : No

Text #2
ID : 4
Format : UTF-8
Codec ID : S_TEXT/UTF8
Codec ID/Info : UTF-8 Plain Text
Duration : 2 h 6 min
Bit rate : 139 b/s
Count of elements : 1800
Stream size : 130 KiB (0%)
Title : [email protected]
Language : Hindi
Default : No
Forced : No

Text #3
ID : 5
Format : UTF-8
Codec ID : S_TEXT/UTF8
Codec ID/Info : UTF-8 Plain Text
Duration : 2 h 8 min
Bit rate : 58 b/s
Count of elements : 1772
Stream size : 54.7 KiB (0%)
Title : [email protected]
Language : Portuguese
Default : No
Forced : No

Text #4
ID : 6
Format : UTF-8
Codec ID : S_TEXT/UTF8
Codec ID/Info : UTF-8 Plain Text
Duration : 2 h 6 min
Bit rate : 139 b/s
Count of elements : 1760
Stream size : 129 KiB (0%)
Title : [email protected]
Language : Tamil
Default : No
Forced : No

Text #5
ID : 7
Format : UTF-8
Codec ID : S_TEXT/UTF8
Codec ID/Info : UTF-8 Plain Text
Duration : 2 h 6 min
Bit rate : 153 b/s
Count of elements : 1778
Stream size : 142 KiB (0%)
Title : [email protected]
Language : Telugu
Default : No
Forced : No

Text #6
ID : 8
Format : UTF-8
Codec ID : S_TEXT/UTF8
Codec ID/Info : UTF-8 Plain Text
Duration : 2 h 6 min
Bit rate : 126 b/s
Count of elements : 1741
Stream size : 117 KiB (0%)
Title : [email protected]
Language : Thai
Default : No
Forced : No

Screenshots:


















Download 1080p – 5.72GB

For All Bengali Movies Click Here

Facebook Comments Box

Duration: 146 min

Quality: WEB-DL

Release:

IMDb: 6.3

Ghawre Bairey Aaj 2019 AMZN WEB-DL