0
1 Star2 Stars3 Stars4 Stars5 Stars (No Ratings Yet)
Loading...

Goodachari 2018 Telugu AMZN WEB-DL

Goodachari

Шпион Action, Thriller | 147min | August 2, 2018 (United States) 7.9
Director: Sashi Kiran TikkaWriter: Adivi Sesh, Abburi Ravi, Rahul PakalaStars: Adivi Sesh, Sobhita Dhulipala, Jagapathi BabuSummary: A young NSA agent is framed for the murder of his bosses making him realize that now his mission is darker than expected and has some personal scores to settle regarding his father's death, a former NSA agent.

Photos


See all photos >>

Goodachari

MediaInfo Goodachari

Goodachari 2018 Telugu 1080p AMZN WEB-DL DDP5.1 H264 MSub – WiKi-PiKi.mkv
Format : Matroska
Format version : Version 4
File size : 5.63 GiB
Duration : 2 h 22 min
Overall bit rate : 5 662 kb/s
Movie name : GoldminesHD.Club
Encoded date : UTC 2021-09-09 03:11:42
Writing application : mkvmerge v56.1.0 (‘My Friend’) 64-bit
Writing library : libebml v1.4.2 + libmatroska v1.6.4
Attachments : WiKi-PiKi.jpg

Video
ID : 1
Format : AVC
Format/Info : Advanced Video Codec
Format profile : [email protected]
Format settings : CABAC / 4 Ref Frames
Format settings, CABAC : Yes
Format settings, Reference frames : 4 frames
Codec ID : V_MPEG4/ISO/AVC
Duration : 2 h 22 min
Bit rate : 5 019 kb/s
Width : 1 920 pixels
Height : 816 pixels
Display aspect ratio : 2.35:1
Frame rate mode : Constant
Frame rate : 24.000 FPS
Color space : YUV
Chroma subsampling : 4:2:0
Bit depth : 8 bits
Scan type : Progressive
Bits/(Pixel*Frame) : 0.133
Stream size : 4.99 GiB (89%)
Title : [email protected]
Default : Yes
Forced : No
Color range : Limited
Color primaries : BT.709
Transfer characteristics : BT.709
Matrix coefficients : BT.709

Audio
ID : 2
Format : E-AC-3
Format/Info : Enhanced AC-3
Commercial name : Dolby Digital Plus
Codec ID : A_EAC3
Duration : 2 h 22 min
Bit rate mode : Constant
Bit rate : 640 kb/s
Channel(s) : 6 channels
Channel layout : L R C LFE Ls Rs
Sampling rate : 48.0 kHz
Frame rate : 31.250 FPS (1536 SPF)
Compression mode : Lossy
Stream size : 651 MiB (11%)
Title : [email protected]
Language : Telugu
Service kind : Complete Main
Default : Yes
Forced : No

Text #1
ID : 3
Format : UTF-8
Codec ID : S_TEXT/UTF8
Codec ID/Info : UTF-8 Plain Text
Duration : 2 h 15 min
Bit rate : 51 b/s
Count of elements : 2283
Stream size : 51.3 KiB (0%)
Title : [email protected]
Language : English
Default : Yes
Forced : No

Text #2
ID : 4
Format : UTF-8
Codec ID : S_TEXT/UTF8
Codec ID/Info : UTF-8 Plain Text
Duration : 2 h 17 min
Bit rate : 76 b/s
Count of elements : 1915
Stream size : 76.5 KiB (0%)
Title : [email protected]
Language : Arabic
Default : No
Forced : No

Text #3
ID : 5
Format : UTF-8
Codec ID : S_TEXT/UTF8
Codec ID/Info : UTF-8 Plain Text
Duration : 2 h 14 min
Bit rate : 119 b/s
Count of elements : 1692
Stream size : 117 KiB (0%)
Title : [email protected]
Language : Hindi
Default : No
Forced : No

Text #4
ID : 6
Format : UTF-8
Codec ID : S_TEXT/UTF8
Codec ID/Info : UTF-8 Plain Text
Duration : 2 h 15 min
Bit rate : 50 b/s
Count of elements : 1660
Stream size : 50.2 KiB (0%)
Title : [email protected]
Language : Indonesian
Default : No
Forced : No

Text #5
ID : 7
Format : UTF-8
Codec ID : S_TEXT/UTF8
Codec ID/Info : UTF-8 Plain Text
Duration : 2 h 17 min
Bit rate : 42 b/s
Count of elements : 1781
Stream size : 42.6 KiB (0%)
Title : [email protected]
Language : Malay
Default : No
Forced : No

Text #6
ID : 8
Format : UTF-8
Codec ID : S_TEXT/UTF8
Codec ID/Info : UTF-8 Plain Text
Duration : 2 h 15 min
Bit rate : 68 b/s
Count of elements : 1654
Stream size : 68.1 KiB (0%)
Title : [email protected]
Language : Russian
Default : No
Forced : No

Text #7
ID : 9
Format : UTF-8
Codec ID : S_TEXT/UTF8
Codec ID/Info : UTF-8 Plain Text
Duration : 2 h 14 min
Bit rate : 140 b/s
Count of elements : 1921
Stream size : 138 KiB (0%)
Title : [email protected]
Language : Tamil
Default : No
Forced : No

Text #8
ID : 10
Format : UTF-8
Codec ID : S_TEXT/UTF8
Codec ID/Info : UTF-8 Plain Text
Duration : 2 h 15 min
Bit rate : 124 b/s
Count of elements : 1775
Stream size : 123 KiB (0%)
Title : [email protected]
Language : Thai
Default : No
Forced : No

Text #9
ID : 11
Format : UTF-8
Codec ID : S_TEXT/UTF8
Codec ID/Info : UTF-8 Plain Text
Duration : 2 h 22 min
Bit rate : 42 b/s
Count of elements : 1647
Stream size : 44.3 KiB (0%)
Title : [email protected]
Language : Chinese
Default : No
Forced : No

Text #10
ID : 12
Format : UTF-8
Codec ID : S_TEXT/UTF8
Codec ID/Info : UTF-8 Plain Text
Duration : 2 h 17 min
Bit rate : 42 b/s
Count of elements : 1803
Stream size : 42.3 KiB (0%)
Title : [email protected]
Language : Chinese
Default : No
Forced : No

Goodachari Screenshots:





































Download 1080p – 5.63GB

For All Telugu Movies Click Here

Facebook Comments Box

Duration: 147 min

Quality: WEB-DL

Release:

IMDb: 7.9

Goodachari 2018 Telugu AMZN WEB-DL