0
1 Star2 Stars3 Stars4 Stars5 Stars (No Ratings Yet)
Loading...

Guns of Banaras 2020 AMZN WEB-DL

Guns of Banaras

Action | 134min | February 28, 2020 (India) 6.7
Director: Shekkhar SuriStars: Karann Nathh, Nathalia Kaur, Ganesh VenkatramanSummary: Guns of Banaras is Indian (Hindi ) language action film. Directed by Shekhar Suri and jointly produced by Ashok Munshi and Shaina Nath Taldar under the banner of Dashaka Cinema Co, and is presented by Dashaka Films and AJ media.

Guns of Banaras

Media-Info Guns of Banaras

Guns.of.Banaras.2020.1080p.AMZN.WEB-DL.DDP5.1.H.264-Telly.mkv

Format : Matroska
Format version : Version 4
File size : 8.35 GiB
Duration : 2 h 7 min
Overall bit rate : 9 409 kb/s
Movie name : Telly
Encoded date : UTC 2021-10-01 18:41:17
Writing application : mkvmerge v59.0.0 (‘Shining Star’) 64-bit
Writing library : libebml v1.4.2 + libmatroska v1.6.4

Video
ID : 1
Format : AVC
Format/Info : Advanced Video Codec
Format profile : [email protected]
Format settings : CABAC / 4 Ref Frames
Format settings, CABAC : Yes
Format settings, ReFrames : 4 frames
Codec ID : V_MPEG4/ISO/AVC
Duration : 2 h 7 min
Bit rate mode : Constant
Bit rate : 8 766 kb/s
Nominal bit rate : 10 000 kb/s
Width : 1 920 pixels
Height : 1 080 pixels
Display aspect ratio : 16:9
Frame rate mode : Constant
Frame rate : 25.000 FPS
Color space : YUV
Chroma subsampling : 4:2:0
Bit depth : 8 bits
Scan type : Progressive
Bits/(Pixel*Frame) : 0.169
Stream size : 7.78 GiB (93%)
Default : Yes
Forced : No
Color range : Limited
Color primaries : BT.709
Transfer characteristics : BT.709
Matrix coefficients : BT.709

Audio
ID : 2
Format : E-AC-3
Format/Info : Enhanced AC-3
Commercial name : Dolby Digital Plus
Codec ID : A_EAC3
Duration : 2 h 7 min
Bit rate mode : Constant
Bit rate : 640 kb/s
Channel(s) : 6 channels
Channel layout : L R C LFE Ls Rs
Sampling rate : 48.0 kHz
Frame rate : 31.250 FPS (1536 SPF)
Compression mode : Lossy
Stream size : 582 MiB (7%)
Title : Hindi
Language : Hindi
Service kind : Complete Main
Default : No
Forced : No

Text #1
ID : 3
Format : UTF-8
Codec ID : S_TEXT/UTF8
Codec ID/Info : UTF-8 Plain Text
Duration : 2 h 2 min
Bit rate : 55 b/s
Count of elements : 1769
Stream size : 49.5 KiB (0%)
Title : English [SDH]
Language : English
Default : No
Forced : No

Text #2
ID : 4
Format : UTF-8
Codec ID : S_TEXT/UTF8
Codec ID/Info : UTF-8 Plain Text
Duration : 2 h 1 min
Bit rate : 53 b/s
Count of elements : 1648
Stream size : 47.9 KiB (0%)
Title : English
Language : English
Default : No
Forced : No

Guns of Banaras Screenshots:

Guns of Banaras

Guns of Banaras

Guns of Banaras

Guns of Banaras

Guns of Banaras

Download 1080p – 8.35GB

For All Hindi Movies Click Here

Facebook Comments Box

Duration: 134 min

Quality: WEB-DL

Release:

IMDb: 6.8

Guns of Banaras 2020 AMZN WEB-DL