0
1 Star2 Stars3 Stars4 Stars5 Stars (No Ratings Yet)
Loading...

Haathi Mere Saathi 2021

Haathi Mere Saathi 2021

Haathi Mere Saathi 2021

General
Complete name : Haathi Mere Saathi 2021 1080p WEB-DL H264 AAC D0T-Telly.mkv
Format : Matroska
Format version : Version 4
File size : 9.20 GiB
Duration : 2 h 41 min
Overall bit rate : 8 148 kb/s
Movie name : GoldminesHD.Club
Encoded date : UTC 2021-09-21 06:19:36
Writing application : mkvmerge v61.0.0 (‘So’) 64-bit
Writing library : libebml v1.4.2 + libmatroska v1.6.4

Video
ID : 1
Format : AVC
Format/Info : Advanced Video Codec
Format profile : [email protected]
Format settings : CABAC / 4 Ref Frames
Format settings, CABAC : Yes
Format settings, Reference frames : 4 frames
Codec ID : V_MPEG4/ISO/AVC
Duration : 2 h 41 min
Bit rate : 8 000 kb/s
Width : 1 920 pixels
Height : 800 pixels
Display aspect ratio : 2.40:1
Frame rate mode : Constant
Frame rate : 24.000 FPS
Color space : YUV
Chroma subsampling : 4:2:0
Bit depth : 8 bits
Scan type : Progressive
Bits/(Pixel*Frame) : 0.217
Stream size : 8.98 GiB (98%)
Title : GoldminesHD.Club
Writing library : x264 core 138

Audio
ID : 2
Format : AAC LC
Format/Info : Advanced Audio Codec Low Complexity
Codec ID : A_AAC-2
Duration : 2 h 41 min
Bit rate : 192 kb/s
Channel(s) : 2 channels
Channel layout : L R
Sampling rate : 48.0 kHz
Frame rate : 46.875 FPS (1024 SPF)
Compression mode : Lossy
Stream size : 222 MiB (2%)
Title : GoldminesHD.Club
Language : Hindi
Default : Yes
Forced : No

Text
ID : 3
Format : UTF-8
Codec ID : S_TEXT/UTF8
Codec ID/Info : UTF-8 Plain Text
Duration : 2 h 31 min
Bit rate : 49 b/s
Count of elements : 1889
Stream size : 54.8 KiB (0%)
Title : GoldminesHD.Club
Language : English
Default : Yes
Forced : No












Download 1080p – 9.20 GB

Facebook Comments Box

Views: 31

Genre: Uncategorized

Director:

Country:

Duration: 126 min

Quality: WEB-DL

Release:

IMDb: 7.6