0
1 Star2 Stars3 Stars4 Stars5 Stars (No Ratings Yet)
Loading...

Hai Taubba S3

Hai Taubba

Drama | May 6, 2021 (India) 4.0
Stars: Kirandeep Kaur, Rutpanna Aishwarya, Poulomi DasSummary: Hai Taubba is a compilation of 4 mature stories, representing emotions symbolized by a distinct colour of love.

Photos


See all photos >>

Hai Taubba S3

Media-Info Hai Taubba

Hai.Taubba.S03E01.Sherni.Hai.Taubba.Season.3.1080p.ALT.WEB-DL.AAC2.0.x264-Telly.mkv
Format : Matroska
Format version : Version 4
File size : 1.14 GiB
Duration : 42 min 9 s
Overall bit rate : 3 863 kb/s
Movie name : Telly
Encoded date : UTC 2021-09-11 14:03:43
Writing application : mkvmerge v11.0.0 (‘Alive’) 64bit
Writing library : libebml v1.3.4 + libmatroska v1.4.5

Video
ID : 1
Format : AVC
Format/Info : Advanced Video Codec
Format profile : [email protected]
Format settings : CABAC / 4 Ref Frames
Format settings, CABAC : Yes
Format settings, Reference frames : 4 frames
Codec ID : V_MPEG4/ISO/AVC
Duration : 42 min 9 s
Bit rate : 3 765 kb/s
Nominal bit rate : 4 500 kb/s
Width : 1 920 pixels
Height : 1 080 pixels
Display aspect ratio : 16:9
Frame rate mode : Constant
Frame rate : 25.000 FPS
Color space : YUV
Chroma subsampling : 4:2:0
Bit depth : 8 bits
Scan type : Progressive
Bits/(Pixel*Frame) : 0.073
Stream size : 1.11 GiB (97%)
Writing library : x264 core 155
Encoding settings : cabac=1 / ref=4 / deblock=1:0:0 / analyse=0x1:0x111 / me=hex / subme=7 / psy=1 / psy_rd=1.00:0.00 / mixed_ref=1 / me_range=16 / chroma_me=1 / trellis=1 / 8x8dct=0 / cqm=0 / deadzone=21,11 / fast_pskip=1 / chroma_qp_offset=-2 / threads=34 / lookahead_threads=5 / sliced_threads=0 / nr=0 / decimate=1 / interlaced=0 / bluray_compat=0 / constrained_intra=0 / bframes=3 / b_pyramid=2 / b_adapt=2 / b_bias=0 / direct=1 / weightb=1 / open_gop=0 / weightp=2 / keyint=50 / keyint_min=26 / scenecut=0 / intra_refresh=0 / rc_lookahead=40 / rc=cbr / mbtree=1 / bitrate=4500 / ratetol=1.0 / qcomp=0.60 / qpmin=0 / qpmax=69 / qpstep=4 / vbv_maxrate=4500 / vbv_bufsize=4500 / nal_hrd=none / filler=0 / ip_ratio=1.40 / aq=1:1.00
Default : Yes
Forced : No

Audio
ID : 2
Format : AAC LC SBR
Format/Info : Advanced Audio Codec Low Complexity with Spectral Band Replication
Commercial name : HE-AAC
Format settings : Explicit
Codec ID : A_AAC-2
Duration : 42 min 9 s
Bit rate : 96.0 kb/s
Channel(s) : 2 channels
Channel layout : L R
Sampling rate : 88.2 kHz
Frame rate : 43.066 FPS (2048 SPF)
Compression mode : Lossy
Stream size : 28.9 MiB (2%)
Language : Hindi
Default : Yes
Forced : No

Text
ID : 3
Format : UTF-8
Codec ID : S_TEXT/UTF8
Codec ID/Info : UTF-8 Plain Text
Duration : 40 min 51 s
Bit rate : 29 b/s
Count of elements : 338
Stream size : 8.86 KiB (0%)
Language : English
Default : No
Forced : No

Hai Taubba Screenshots:

Hai Taubba

Hai Taubba

Hai Taubba

Hai Taubba

S3 1080p Single Download Link:

Download EP – 01 1080p – 1.14GB

Download EP – 02 1080p – 1.09GB

Download EP – 03 1080p – 1.21GB

Download EP – 04 1080p – 1.13GB

S3 Zip File Download Link:

Download S3 Complete Series 1080p – 4.57GB

For All Webseries Click Here

Facebook Comments Box

Duration: N/A

Quality: WEB-DL

Release:

IMDb: N/A