0
1 Star2 Stars3 Stars4 Stars5 Stars (No Ratings Yet)
Loading...

He-Man and the Masters of the Universe 2021 S1

He-Man and the Masters of the Universe

Хі-Мен і Володарі Всесвіту Animation, Action, Adventure, Family, Fantasy, Sci-Fi | September 16, 2021 (United States) 6.6
Writer: Robert DavidStars: Kimberly Brooks, Antony Del Rio, Trevor DevallSummary: In Eternia, the first planet of creation, a demonic tyrant rises: Skeletor. With dark armies at his command, Skeletor is on the march, hell-bent on capturing Eternia's kingdoms, and its ultimate prize Castle Grayskull, the ancient fortress of mystery said to contain the greatest power in the universe. It's up to He-Man, voiced by Yuri Lowenthal, and his brave squad of rookie heroes to stop Skeletor and restore the peace. Both sides come armed with enchanted Power Weapons transforming them into Masters of the Primal Powers of the Universe. It's Master vs. Dark Master, He-Man vs. Skeletor fighting for control of Eternia, Castle Grayskull, and the fate of us all. In the end, who will become Master of the Universe?

Photos


See all photos >>

He-Man

Media-Info He-Man

HeMan.and.the.Masters.of.the.Universe.S01E01.the.Sword.of.Grayskull.1080p.NF.WEB-DL.DD+5.1.HEVC-Telly.mkv
Format : Matroska
Format version : Version 4
File size : 1.01 GiB
Duration : 26 min 5 s
Overall bit rate : 5 565 kb/s
Movie name : Telly
Encoded date : UTC 2021-09-16 07:40:35
Writing application : mkvmerge v59.0.0 (‘Shining Star’) 64-bit
Writing library : libebml v1.4.2 + libmatroska v1.6.4

Video
ID : 1
Format : HEVC
Format/Info : High Efficiency Video Coding
Format profile : Main [email protected]@Main
HDR format : SMPTE ST 2086, HDR10 compatible
Codec ID : V_MPEGH/ISO/HEVC
Duration : 22 min 55 s
Bit rate : 4 871 kb/s
Width : 1 920 pixels
Height : 1 080 pixels
Display aspect ratio : 16:9
Frame rate mode : Constant
Frame rate : 24.000 FPS
Color space : YUV
Chroma subsampling : 4:2:0 (Type 2)
Bit depth : 10 bits
Bits/(Pixel*Frame) : 0.098
Stream size : 799 MiB (77%)
Default : Yes
Forced : No
Color range : Limited
Color primaries : BT.2020
Transfer characteristics : PQ
Matrix coefficients : BT.2020 non-constant
Mastering display color primaries : Display P3
Mastering display luminance : min: 0.0001 cd/m2, max: 1000 cd/m2
Maximum Content Light Level : 2906 cd/m2
Maximum Frame-Average Light Level : 886 cd/m2

Audio #1
ID : 2
Format : E-AC-3
Format/Info : Enhanced AC-3
Commercial name : Dolby Digital Plus
Codec ID : A_EAC3
Duration : 26 min 5 s
Bit rate mode : Constant
Bit rate : 640 kb/s
Channel(s) : 6 channels
Channel layout : L R C LFE Ls Rs
Sampling rate : 48.0 kHz
Frame rate : 31.250 FPS (1536 SPF)
Compression mode : Lossy
Stream size : 119 MiB (12%)
Title : Hindi
Language : Hindi
Service kind : Complete Main
Default : Yes
Forced : No

Audio #2
ID : 3
Format : E-AC-3
Format/Info : Enhanced AC-3
Commercial name : Dolby Digital Plus
Codec ID : A_EAC3
Duration : 26 min 5 s
Bit rate mode : Constant
Bit rate : 640 kb/s
Channel(s) : 6 channels
Channel layout : L R C LFE Ls Rs
Sampling rate : 48.0 kHz
Frame rate : 31.250 FPS (1536 SPF)
Compression mode : Lossy
Stream size : 119 MiB (12%)
Title : English
Language : English
Service kind : Complete Main
Default : No
Forced : No

Text #1
ID : 4
Format : UTF-8
Codec ID : S_TEXT/UTF8
Codec ID/Info : UTF-8 Plain Text
Duration : 21 min 56 s
Bit rate : 74 b/s
Count of elements : 502
Stream size : 11.9 KiB (0%)
Title : English
Language : English
Default : No
Forced : No

Text #2
ID : 5
Format : UTF-8
Codec ID : S_TEXT/UTF8
Codec ID/Info : UTF-8 Plain Text
Duration : 21 min 56 s
Bit rate : 74 b/s
Count of elements : 502
Stream size : 11.9 KiB (0%)
Title : English
Language : English
Default : No
Forced : No

He-Man

Text #3
ID : 6
Format : UTF-8
Codec ID : S_TEXT/UTF8
Codec ID/Info : UTF-8 Plain Text
Duration : 22 min 32 s
Bit rate : 88 b/s
Count of elements : 268
Stream size : 14.6 KiB (0%)
Title : Arabic
Language : Arabic
Default : No
Forced : No

Text #4
ID : 7
Format : UTF-8
Codec ID : S_TEXT/UTF8
Codec ID/Info : UTF-8 Plain Text
Duration : 22 min 32 s
Bit rate : 53 b/s
Count of elements : 277
Stream size : 8.84 KiB (0%)
Title : Chinese Simplified
Language : Chinese
Default : No
Forced : No

Text #5
ID : 8
Format : UTF-8
Codec ID : S_TEXT/UTF8
Codec ID/Info : UTF-8 Plain Text
Duration : 22 min 32 s
Bit rate : 51 b/s
Count of elements : 276
Stream size : 8.52 KiB (0%)
Title : Chinese Traditional
Language : Chinese
Default : No
Forced : No

Text #6
ID : 9
Format : UTF-8
Codec ID : S_TEXT/UTF8
Codec ID/Info : UTF-8 Plain Text
Duration : 22 min 34 s
Bit rate : 39 b/s
Count of elements : 261
Stream size : 6.61 KiB (0%)
Title : Croatian
Language : Croatian
Default : No
Forced : No

Text #7
ID : 10
Format : UTF-8
Codec ID : S_TEXT/UTF8
Codec ID/Info : UTF-8 Plain Text
Duration : 22 min 32 s
Bit rate : 43 b/s
Count of elements : 263
Stream size : 7.14 KiB (0%)
Title : Czech
Language : Czech
Default : No
Forced : No

Text #8
ID : 11
Format : UTF-8
Codec ID : S_TEXT/UTF8
Codec ID/Info : UTF-8 Plain Text
Duration : 22 min 32 s
Bit rate : 43 b/s
Count of elements : 195
Stream size : 7.21 KiB (0%)
Title : Danish
Language : Danish
Default : No
Forced : No

Text #9
ID : 12
Format : UTF-8
Codec ID : S_TEXT/UTF8
Codec ID/Info : UTF-8 Plain Text
Duration : 22 min 32 s
Bit rate : 38 b/s
Count of elements : 215
Stream size : 6.43 KiB (0%)
Title : Dutch
Language : Dutch
Default : No
Forced : No

Text #10
ID : 13
Format : UTF-8
Codec ID : S_TEXT/UTF8
Codec ID/Info : UTF-8 Plain Text
Duration : 22 min 37 s
Bit rate : 41 b/s
Count of elements : 213
Stream size : 6.87 KiB (0%)
Title : Finnish
Language : Finnish
Default : No
Forced : No

Text #11
ID : 14
Format : UTF-8
Codec ID : S_TEXT/UTF8
Codec ID/Info : UTF-8 Plain Text
Duration : 22 min 32 s
Bit rate : 47 b/s
Count of elements : 275
Stream size : 7.87 KiB (0%)
Title : French
Language : French
Default : No
Forced : No

Text #12
ID : 15
Format : UTF-8
Codec ID : S_TEXT/UTF8
Codec ID/Info : UTF-8 Plain Text
Duration : 22 min 32 s
Bit rate : 46 b/s
Count of elements : 220
Stream size : 7.63 KiB (0%)
Title : German
Language : German
Default : No
Forced : No

Text #13
ID : 16
Format : UTF-8
Codec ID : S_TEXT/UTF8
Codec ID/Info : UTF-8 Plain Text
Duration : 22 min 32 s
Bit rate : 70 b/s
Count of elements : 238
Stream size : 11.6 KiB (0%)
Title : Greek
Language : Greek
Default : No
Forced : No

He-Man Screenshots:

He-Man

He-Man

He-Man

He-Man

S1 1080p HEVC Single Episode Download Link:

Download EP – 01 – 1.01GB

Download EP – 02 – 1GB

Download EP – 03 – 943MB

Download EP – 04 – 1.02GB

Download EP – 05 – 1GB

Download EP – 06 – 984MB

Download EP – 07 – 991MB

Download EP – 08 – 1021MB

Download EP – 09 – 1.04GB

Download EP – 10 – 994MB

S1 Complete Series Zip File Download Link:

Download 1080p – 9.42GB

Download 1080p HEVC – 9.89GB

Download 720p – 6.75GB

For All Webseries Click Here

Facebook Comments Box