0
1 Star2 Stars3 Stars4 Stars5 Stars (No Ratings Yet)
Loading...

Hrid Majharey 2014 AMZN WEB-DL [First On Net]

Hrid Majharey

Romance | 122min | July 11, 2014 (India) 6.6
Director: Ranjan GhoshWriter: Ranjan GhoshStars: Barun Chanda, Abir Chatterjee, Prasun ChatterjeeSummary: The film begins with a shot in which a very disheveled looking Abhijit (Abir Chatterjee) enters the room to find Debjani (Raima Sen) lying dead on the bed. The story goes back to a flashback and we get to see the reason behind such a fatal outcome. Abhijit is a professor of Mathematics at St. Xavier's College, Kolkata. He lives with his only sister Mallika who is a crime journalist by profession. A chance meeting with a soothsayer (Sohag Sen) who warns Abhijit to stay away from love for his own good is not given much importance by the professor. One rainy night he comes across a beautiful damsel in distress Debjani, stranded, as her taxi has broken down. He gives Debjani, a trainee heart surgeon, a lift in his car and Cupid strikes. They date and fall in love. Abhijit, however, faces a problem at his job when an infatuated student proposes him. He rejects and in retaliation she does something to get back at the professor. He is initially arrested, and then ostracized by one and all. Faced with such grave issues at work, he goes to the Andamans along with Debjani in search of a new life. There they meet Shubhro (Indrasish Roy) who is Debjani's junior from their high school days. Shubhro runs an NGO at Port Blair and composes music in his pastime. Shubhro and Debjani spend time together rejuvenating their old friendship. At times, Abhijit gets jealous of Shubhro's unwavering attention on Debjani. Shubhro dies in an accident and this leaves Abhijit in a confused state. He begins to question himself about the prophecy of the soothsayer. What actually happens next? Does Abhijit leave Debjani? Who killed Debjani? Hrid Majharey answers them all. —Ranjan Ghosh

Hrid Majarey 2014:Bengali Movies; goldmineshd.club;

Media-Info Hrid Majharey

Hrid Majharey 2014 Bengali 1080p AMZN WEB-DL DDP2.0 H264 ESub – WiKi-PiKi.mkv
Format : Matroska
Format version : Version 4
File size : 2.96 GiB
Duration : 1 h 57 min
Overall bit rate : 3 613 kb/s
Movie name : GoldminesHD.Club
Encoded date : UTC 2021-08-25 10:54:13
Writing application : mkvmerge v56.1.0 (‘My Friend’) 64-bit
Writing library : libebml v1.4.2 + libmatroska v1.6.4

Video
ID : 1
Format : AVC
Format/Info : Advanced Video Codec
Format profile : [email protected]
Format settings : CABAC / 4 Ref Frames
Format settings, CABAC : Yes
Format settings, Reference frames : 4 frames
Codec ID : V_MPEG4/ISO/AVC
Duration : 1 h 57 min
Bit rate : 3 387 kb/s
Width : 1 920 pixels
Height : 816 pixels
Display aspect ratio : 2.35:1
Frame rate mode : Constant
Frame rate : 25.000 FPS
Color space : YUV
Chroma subsampling : 4:2:0
Bit depth : 8 bits
Scan type : Progressive
Bits/(Pixel*Frame) : 0.086
Stream size : 2.77 GiB (94%)
Title : [email protected]
Default : Yes
Forced : No
Color range : Limited
Color primaries : BT.709
Transfer characteristics : BT.709
Matrix coefficients : BT.709

Audio
ID : 2
Format : E-AC-3
Format/Info : Enhanced AC-3
Commercial name : Dolby Digital Plus
Codec ID : A_EAC3
Duration : 1 h 57 min
Bit rate mode : Constant
Bit rate : 224 kb/s
Channel(s) : 2 channels
Channel layout : L R
Sampling rate : 48.0 kHz
Frame rate : 31.250 FPS (1536 SPF)
Compression mode : Lossy
Stream size : 188 MiB (6%)
Title : [email protected]
Language : Bengali
Service kind : Complete Main
Default : Yes
Forced : No

Text
ID : 3
Format : UTF-8
Codec ID : S_TEXT/UTF8
Codec ID/Info : UTF-8 Plain Text
Duration : 1 h 54 min
Bit rate : 56 b/s
Count of elements : 1400
Stream size : 47.7 KiB (0%)
Title : [email protected]
Language : English
Default : Yes
Forced : No

Screenshots:















Download 1080p – 2.96GB

For All Bengali Movies Click Here

Facebook Comments Box

Duration: 122 min

Quality: WEB-DL

Release:

IMDb: 6.6