0
1 Star2 Stars3 Stars4 Stars5 Stars (No Ratings Yet)
Loading...

Hyderabad Factory 2018

Hyderabad Factory 2018

Hyderabad Factory 2018

General
Complete name : Hyderabad Factory 2018 1080p WEB-DL H264 AAC D0T-Telly.mkv
Format : Matroska
Format version : Version 4
File size : 6.33 GiB
Duration : 1 h 50 min
Overall bit rate : 8 184 kb/s
Movie name : GoldminesHD.Club
Encoded date : UTC 2021-09-21 07:29:03
Writing application : mkvmerge v61.0.0 (‘So’) 64-bit
Writing library : libebml v1.4.2 + libmatroska v1.6.4

Video
ID : 1
Format : AVC
Format/Info : Advanced Video Codec
Format profile : [email protected]
Format settings : CABAC / 4 Ref Frames
Format settings, CABAC : Yes
Format settings, Reference frames : 4 frames
Format settings, GOP : M=4, N=50
Codec ID : V_MPEG4/ISO/AVC
Duration : 1 h 50 min
Bit rate : 8 000 kb/s
Width : 1 920 pixels
Height : 816 pixels
Display aspect ratio : 2.35:1
Frame rate mode : Constant
Frame rate : 25.000 FPS
Color space : YUV
Chroma subsampling : 4:2:0
Bit depth : 8 bits
Scan type : Progressive
Bits/(Pixel*Frame) : 0.204
Stream size : 6.18 GiB (98%)
Title : GoldminesHD.Club
Writing library : x264 core 138

Audio
ID : 2
Format : AAC LC
Format/Info : Advanced Audio Codec Low Complexity
Codec ID : A_AAC-2
Duration : 1 h 50 min
Bit rate : 192 kb/s
Channel(s) : 2 channels
Channel layout : L R
Sampling rate : 48.0 kHz
Frame rate : 46.875 FPS (1024 SPF)
Compression mode : Lossy
Stream size : 152 MiB (2%)
Title : GoldminesHD.Club
Language : Hindi
Default : Yes
Forced : No








Download 1080p – 6.33 GB

Facebook Comments Box

Views: 25

Genre: Uncategorized

Duration: