0
1 Star2 Stars3 Stars4 Stars5 Stars (No Ratings Yet)
Loading...

Into the Night 2021 S2

Into the Night

في جنح الليل Drama, Sci-Fi, Thriller | May 1, 2020 (United States) 7.1
Writer: Jason GeorgeStars: Pauline Etienne, Laurent Capelluto, Mehmet KurtulusSummary: When radiation from the sun causes a global disaster on Earth, survivors on an overnight flight from Brussels race from city to city trying to stay ahead of the sun's rays by remaining in the cover of night.

Photos


See all photos >>

Into The Night

Media-Info Into the Night

Into.the.Night.S02.1080p.NF.WEB-DL.DD+5.1.HDR.HEVC-Telly/Into.the.Night.S02E01.Zara.1080p.NF.WEB-DL.DD+5.1.HDR.HEVC-Telly.mkv
Format : Matroska
Format version : Version 4
File size : 1.48 GiB
Duration : 35 min 30 s
Overall bit rate : 5 977 kb/s
Movie name : Telly
Encoded date : UTC 2021-09-08 12:35:50
Writing application : mkvmerge v59.0.0 (‘Shining Star’) 64-bit
Writing library : libebml v1.4.2 + libmatroska v1.6.4

Video
ID : 1
Format : HEVC
Format/Info : High Efficiency Video Coding
Format profile : Main [email protected]@Main
HDR format : SMPTE ST 2086, HDR10 compatible
Codec ID : V_MPEGH/ISO/HEVC
Duration : 34 min 34 s
Bit rate : 5 474 kb/s
Width : 1 920 pixels
Height : 1 080 pixels
Display aspect ratio : 16:9
Frame rate mode : Constant
Frame rate : 24.000 FPS
Color space : YUV
Chroma subsampling : 4:2:0 (Type 2)
Bit depth : 10 bits
Bits/(Pixel*Frame) : 0.110
Stream size : 1.32 GiB (89%)
Default : Yes
Forced : No
Color range : Limited
Color primaries : BT.2020
Transfer characteristics : PQ
Matrix coefficients : BT.2020 non-constant
Mastering display color primaries : Display P3
Mastering display luminance : min: 0.0001 cd/m2, max: 1000 cd/m2
Maximum Content Light Level : 1065 cd/m2
Maximum Frame-Average Light Level : 233 cd/m2

Audio
ID : 2
Format : E-AC-3
Format/Info : Enhanced AC-3
Commercial name : Dolby Digital Plus
Codec ID : A_EAC3
Duration : 35 min 30 s
Bit rate mode : Constant
Bit rate : 640 kb/s
Channel(s) : 6 channels
Channel layout : L R C LFE Ls Rs
Sampling rate : 48.0 kHz
Frame rate : 31.250 FPS (1536 SPF)
Compression mode : Lossy
Stream size : 163 MiB (11%)
Title : British English
Language : English
Service kind : Complete Main
Default : No
Forced : No

Text #1
ID : 3
Format : UTF-8
Codec ID : S_TEXT/UTF8
Codec ID/Info : UTF-8 Plain Text
Duration : 33 min 51 s
Bit rate : 63 b/s
Count of elements : 533
Stream size : 15.7 KiB (0%)
Title : English
Language : English
Default : No
Forced : No

Text #2
ID : 4
Format : UTF-8
Codec ID : S_TEXT/UTF8
Codec ID/Info : UTF-8 Plain Text
Duration : 33 min 51 s
Bit rate : 63 b/s
Count of elements : 533
Stream size : 15.7 KiB (0%)
Title : English
Language : English
Default : No
Forced : No

Text #3
ID : 5
Format : UTF-8
Codec ID : S_TEXT/UTF8
Codec ID/Info : UTF-8 Plain Text
Duration : 31 min 53 s
Bit rate : 124 b/s
Count of elements : 524
Stream size : 29.1 KiB (0%)
Title : Arabic
Language : Arabic
Default : No
Forced : No

Text #4
ID : 6
Format : UTF-8
Codec ID : S_TEXT/UTF8
Codec ID/Info : UTF-8 Plain Text
Duration : 32 min 12 s
Bit rate : 105 b/s
Count of elements : 606
Stream size : 24.9 KiB (0%)
Title : British English
Language : English
Default : No
Forced : No

Text #5
ID : 7
Format : UTF-8
Codec ID : S_TEXT/UTF8
Codec ID/Info : UTF-8 Plain Text
Duration : 34 min 9 s
Bit rate : 67 b/s
Count of elements : 529
Stream size : 16.9 KiB (0%)
Title : Chinese Simplified
Language : Chinese
Default : No
Forced : No

Text #6
ID : 8
Format : UTF-8
Codec ID : S_TEXT/UTF8
Codec ID/Info : UTF-8 Plain Text
Duration : 34 min 10 s
Bit rate : 65 b/s
Count of elements : 522
Stream size : 16.5 KiB (0%)
Title : Chinese Traditional
Language : Chinese
Default : No
Forced : No

Text #7
ID : 9
Format : UTF-8
Codec ID : S_TEXT/UTF8
Codec ID/Info : UTF-8 Plain Text
Duration : 34 min 18 s
Bit rate : 53 b/s
Count of elements : 526
Stream size : 13.4 KiB (0%)
Title : Croatian
Language : Croatian
Default : No
Forced : No

Text #8
ID : 10
Format : UTF-8
Codec ID : S_TEXT/UTF8
Codec ID/Info : UTF-8 Plain Text
Duration : 34 min 9 s
Bit rate : 59 b/s
Count of elements : 526
Stream size : 14.8 KiB (0%)
Title : Czech
Language : Czech
Default : No
Forced : No

Text #9
ID : 11
Format : UTF-8
Codec ID : S_TEXT/UTF8
Codec ID/Info : UTF-8 Plain Text
Duration : 34 min 9 s
Bit rate : 54 b/s
Count of elements : 454
Stream size : 13.5 KiB (0%)
Title : Danish
Language : Danish
Default : No
Forced : No

Text #10
ID : 12
Format : UTF-8
Codec ID : S_TEXT/UTF8
Codec ID/Info : UTF-8 Plain Text
Duration : 34 min 9 s
Bit rate : 53 b/s
Count of elements : 496
Stream size : 13.5 KiB (0%)
Title : Dutch
Language : Dutch
Default : No
Forced : No

Text #11
ID : 13
Format : UTF-8
Codec ID : S_TEXT/UTF8
Codec ID/Info : UTF-8 Plain Text
Duration : 34 min 9 s
Bit rate : 57 b/s
Count of elements : 506
Stream size : 14.4 KiB (0%)
Title : Finnish
Language : Finnish
Default : No
Forced : No

Text #12
ID : 14
Format : UTF-8
Codec ID : S_TEXT/UTF8
Codec ID/Info : UTF-8 Plain Text
Duration : 32 min 0 s
Bit rate : 112 b/s
Count of elements : 613
Stream size : 26.3 KiB (0%)
Title : French
Language : French
Default : No
Forced : No

Text #13
ID : 15
Format : UTF-8
Codec ID : S_TEXT/UTF8
Codec ID/Info : UTF-8 Plain Text
Duration : 30 min 8 s
Bit rate : 37 b/s
Count of elements : 258
Stream size : 8.17 KiB (0%)
Title : Forced
Language : French
Default : No
Forced : Yes

Text #14
ID : 16
Format : UTF-8
Codec ID : S_TEXT/UTF8
Codec ID/Info : UTF-8 Plain Text
Duration : 34 min 8 s
Bit rate : 60 b/s
Count of elements : 512
Stream size : 15.1 KiB (0%)
Title : German
Language : German
Default : No
Forced : No

Text #15
ID : 17
Format : UTF-8
Codec ID : S_TEXT/UTF8
Codec ID/Info : UTF-8 Plain Text
Duration : 34 min 12 s
Bit rate : 105 b/s
Count of elements : 504
Stream size : 26.4 KiB (0%)
Title : Greek
Language : Greek
Default : No
Forced : No

Text #16
ID : 18
Format : UTF-8
Codec ID : S_TEXT/UTF8
Codec ID/Info : UTF-8 Plain Text
Duration : 34 min 19 s
Bit rate : 94 b/s
Count of elements : 529
Stream size : 23.9 KiB (0%)
Title : Hebrew
Language : Hebrew
Default : No
Forced : No

Text #17
ID : 19
Format : UTF-8
Codec ID : S_TEXT/UTF8
Codec ID/Info : UTF-8 Plain Text
Duration : 34 min 9 s
Bit rate : 57 b/s
Count of elements : 524
Stream size : 14.3 KiB (0%)
Title : Hungarian
Language : Hungarian
Default : No
Forced : No

Text #18
ID : 20
Format : UTF-8
Codec ID : S_TEXT/UTF8
Codec ID/Info : UTF-8 Plain Text
Duration : 34 min 9 s
Bit rate : 57 b/s
Count of elements : 527
Stream size : 14.4 KiB (0%)
Title : Indonesian
Language : Indonesian
Default : No
Forced : No

Text #19
ID : 21
Format : UTF-8
Codec ID : S_TEXT/UTF8
Codec ID/Info : UTF-8 Plain Text
Duration : 34 min 9 s
Bit rate : 58 b/s
Count of elements : 530
Stream size : 14.7 KiB (0%)
Title : Italian
Language : Italian
Default : No
Forced : No

Text #20
ID : 22
Format : UTF-8
Codec ID : S_TEXT/UTF8
Codec ID/Info : UTF-8 Plain Text
Duration : 34 min 18 s
Bit rate : 57 b/s
Count of elements : 575
Stream size : 14.5 KiB (0%)
Title : Japanese
Language : Japanese
Default : No
Forced : No

Text #21
ID : 23
Format : UTF-8
Codec ID : S_TEXT/UTF8
Codec ID/Info : UTF-8 Plain Text
Duration : 34 min 12 s
Bit rate : 77 b/s
Count of elements : 530
Stream size : 19.4 KiB (0%)
Title : Korean
Language : Korean
Default : No
Forced : No

Into the Night

Text #22
ID : 24
Format : UTF-8
Codec ID : S_TEXT/UTF8
Codec ID/Info : UTF-8 Plain Text
Duration : 34 min 9 s
Bit rate : 60 b/s
Count of elements : 513
Stream size : 15.1 KiB (0%)
Title : Malay
Language : Malay
Default : No
Forced : No

Text #23
ID : 25
Format : UTF-8
Codec ID : S_TEXT/UTF8
Codec ID/Info : UTF-8 Plain Text
Duration : 34 min 9 s
Bit rate : 58 b/s
Count of elements : 471
Stream size : 14.5 KiB (0%)
Title : Norwegian Bokmal
Language : Norwegian Bokmal
Default : No
Forced : No

Text #24
ID : 26
Format : UTF-8
Codec ID : S_TEXT/UTF8
Codec ID/Info : UTF-8 Plain Text
Duration : 34 min 9 s
Bit rate : 51 b/s
Count of elements : 503
Stream size : 12.8 KiB (0%)
Title : Polish
Language : Polish
Default : No
Forced : No

Text #25
ID : 27
Format : UTF-8
Codec ID : S_TEXT/UTF8
Codec ID/Info : UTF-8 Plain Text
Duration : 34 min 10 s
Bit rate : 59 b/s
Count of elements : 527
Stream size : 15.0 KiB (0%)
Title : Portuguese
Language : Portuguese
Default : No
Forced : No

Into the Night

Text #26
ID : 28
Format : UTF-8
Codec ID : S_TEXT/UTF8
Codec ID/Info : UTF-8 Plain Text
Duration : 34 min 9 s
Bit rate : 64 b/s
Count of elements : 510
Stream size : 16.0 KiB (0%)
Title : Brazilian Portuguese
Language : Portuguese
Default : No
Forced : No

Text #27
ID : 29
Format : UTF-8
Codec ID : S_TEXT/UTF8
Codec ID/Info : UTF-8 Plain Text
Duration : 34 min 9 s
Bit rate : 69 b/s
Count of elements : 521
Stream size : 17.5 KiB (0%)
Title : Romanian
Language : Romanian
Default : No
Forced : No

Text #28
ID : 30
Format : UTF-8
Codec ID : S_TEXT/UTF8
Codec ID/Info : UTF-8 Plain Text
Duration : 34 min 9 s
Bit rate : 89 b/s
Count of elements : 508
Stream size : 22.5 KiB (0%)
Title : Russian
Language : Russian
Default : No
Forced : No

Text #29
ID : 31
Format : UTF-8
Codec ID : S_TEXT/UTF8
Codec ID/Info : UTF-8 Plain Text
Duration : 34 min 9 s
Bit rate : 58 b/s
Count of elements : 529
Stream size : 14.7 KiB (0%)
Title : Spanish
Language : Spanish
Default : No
Forced : No

Text #30
ID : 32
Format : UTF-8
Codec ID : S_TEXT/UTF8
Codec ID/Info : UTF-8 Plain Text
Duration : 34 min 9 s
Bit rate : 59 b/s
Count of elements : 518
Stream size : 14.9 KiB (0%)
Title : European Spanish
Language : Spanish
Default : No
Forced : No

Text #31
ID : 33
Format : UTF-8
Codec ID : S_TEXT/UTF8
Codec ID/Info : UTF-8 Plain Text
Duration : 34 min 9 s
Bit rate : 58 b/s
Count of elements : 499
Stream size : 14.7 KiB (0%)
Title : Swedish
Language : Swedish
Default : No
Forced : No

Text #32
ID : 34
Format : UTF-8
Codec ID : S_TEXT/UTF8
Codec ID/Info : UTF-8 Plain Text
Duration : 34 min 9 s
Bit rate : 161 b/s
Count of elements : 532
Stream size : 40.4 KiB (0%)
Title : Thai
Language : Thai
Default : No
Forced : No

Text #33
ID : 35
Format : UTF-8
Codec ID : S_TEXT/UTF8
Codec ID/Info : UTF-8 Plain Text
Duration : 34 min 8 s
Bit rate : 58 b/s
Count of elements : 531
Stream size : 14.7 KiB (0%)
Title : Turkish
Language : Turkish
Default : No
Forced : No

Text #34
ID : 36
Format : UTF-8
Codec ID : S_TEXT/UTF8
Codec ID/Info : UTF-8 Plain Text
Duration : 34 min 8 s
Bit rate : 92 b/s
Count of elements : 528
Stream size : 23.1 KiB (0%)
Title : Ukrainian
Language : Ukrainian
Default : No
Forced : No

Text #35
ID : 37
Format : UTF-8
Codec ID : S_TEXT/UTF8
Codec ID/Info : UTF-8 Plain Text
Duration : 34 min 9 s
Bit rate : 87 b/s
Count of elements : 528
Stream size : 21.8 KiB (0%)
Title : Vietnamese
Language : Vietnamese
Default : No
Forced : No

Into The Night Screenshots:

Into The Night

Into The Night

Into The Night

Into the Night Download S2 Single Episode 1080p HDR HEVC:

Download EP – 01 1080p HEVC – 1.48GB

Download EP – 02 1080p HEVC – 1.53GB

Download EP – 03 1080p HEVC – 1.41GB

Download EP – 04 1080p HEVC – 1.33GB

Download EP – 05 1080p HEVC – 1.41GB

Download EP – 06 1080p HEVC – 1.46GB

Into the Night Download S2 Complete Series ZIP File 1080p HDR HEVC:

Download S2 1080p HDR HEVC – 8.61GB

For All Webseries Click Here

Facebook Comments Box