0
1 Star2 Stars3 Stars4 Stars5 Stars (No Ratings Yet)
Loading...

Jackpot 2009

Jackpot

(2009) Drama | 120min | January 23, 2009 (India) 5.4
Director: Kaushik GangulyWriter: Kaushik GangulyStars: Rahul Banerjee, Hiran Chatterjee, DevSummary: The film is about a reality show organized by Star Ananda, where the two finalists, Arka and Dodo, are given two tasks to fulfill. Dodo is given the duty of a police constable at Bhawanipur police station while Arka is given the duty of a driver. They are given three days and two nights to battle out and the prize is fixed at INR. 10 million. The one who makes fewer mistakes will win the jackpot.

Photos


See all photos >>

Jackpot 2009:Bengali Movies; goldmineshd.club;

Media-Info Jackpot

Jackpot 2009 Bengali 1080p WEB-DL AAC2.0 H264 – WiKi-PiKi.mkv
Format : Matroska
Format version : Version 4
File size : 6.56 GiB
Duration : 2 h 14 min
Overall bit rate : 6 994 kb/s
Movie name : GoldminesHD.Club
Encoded date : UTC 2021-08-11 05:22:05
Writing application : mkvmerge v60.0.0 (‘Are We Copies?’) 64-bit
Writing library : libebml v1.4.2 + libmatroska v1.6.4

Video
ID : 1
Format : AVC
Format/Info : Advanced Video Codec
Format profile : [email protected]
Format settings : CABAC / 3 Ref Frames
Format settings, CABAC : Yes
Format settings, Reference frames : 3 frames
Codec ID : V_MPEG4/ISO/AVC
Duration : 2 h 14 min
Bit rate : 6 736 kb/s
Width : 1 920 pixels
Height : 800 pixels
Display aspect ratio : 2.40:1
Frame rate mode : Constant
Frame rate : 30.000 FPS
Color space : YUV
Chroma subsampling : 4:2:0
Bit depth : 8 bits
Scan type : Progressive
Bits/(Pixel*Frame) : 0.146
Stream size : 6.31 GiB (96%)
Title : [email protected]
Default : Yes
Forced : No
Color range : Limited
Color primaries : BT.709
Transfer characteristics : BT.709
Matrix coefficients : BT.709

Audio
ID : 2
Format : AAC LC
Format/Info : Advanced Audio Codec Low Complexity
Codec ID : A_AAC-2
Duration : 2 h 14 min
Bit rate : 256 kb/s
Channel(s) : 2 channels
Channel layout : L R
Sampling rate : 48.0 kHz
Frame rate : 46.875 FPS (1024 SPF)
Compression mode : Lossy
Delay relative to video : -43 ms
Stream size : 246 MiB (4%)
Title : [email protected]
Language : Bengali
Default : Yes
Forced : No

Screenshots:















Download 1080p – 6.56GB

For All Bengali Movies Click Here

Facebook Comments Box

Duration: 120 min

Quality: WEB-DL

Release:

IMDb: 5.4

Jackpot 2009
Jackpot 2009
Jackpot 2009
Jackpot 2009
Jackpot 2009
Jackpot 2009
Jackpot 2009