0
1 Star2 Stars3 Stars4 Stars5 Stars (No Ratings Yet)
Loading...

John Wick: Chapter 3 – Parabellum 2019 AMZN WEB-DL

John Wick: Chapter 3

John Wick: Chapter 3 Action, Crime, Thriller | 130min | May 17, 2019 (United States) 7.4
Director: Chad StahelskiWriter: Derek Kolstad, Shay Hatten, Chris CollinsStars: Keanu Reeves, Halle Berry, Ian McShaneSummary: In this third installment of the adrenaline-fueled action franchise, skilled assassin John Wick (Keanu Reeves) returns with a $14 million price tag on his head and an army of bounty-hunting killers on his trail. After killing a member of the shadowy international assassin's guild, the High Table, John Wick is excommunicado, but the world's most ruthless hit men and women await his every turn.

Photos


See all photos >>

John Wick: Chapter 3

Media-Info John Wick: Chapter 3

John.Wick.Chapter.3.Parabellum.2019.1080p.AMZN.WEB-DL.HIN-Multi.DDP5.1.H.264-Telly.mkv
Format : Matroska
Format version : Version 4
File size : 10.9 GiB
Duration : 2 h 5 min
Overall bit rate : 12.4 Mb/s
Movie name : Telly
Encoded date : UTC 2021-09-24 06:55:53
Writing application : mkvmerge v59.0.0 (‘Shining Star’) 64-bit
Writing library : libebml v1.4.2 + libmatroska v1.6.4

Video
ID : 1
Format : AVC
Format/Info : Advanced Video Codec
Format profile : [email protected]
Format settings : CABAC / 4 Ref Frames
Format settings, CABAC : Yes
Format settings, Reference frames : 4 frames
Codec ID : V_MPEG4/ISO/AVC
Duration : 2 h 5 min
Bit rate mode : Constant
Bit rate : 9 212 kb/s
Nominal bit rate : 10 000 kb/s
Width : 1 920 pixels
Height : 800 pixels
Display aspect ratio : 2.40:1
Frame rate mode : Constant
Frame rate : 25.000 FPS
Color space : YUV
Chroma subsampling : 4:2:0
Bit depth : 8 bits
Scan type : Progressive
Bits/(Pixel*Frame) : 0.240
Stream size : 8.07 GiB (74%)
Default : Yes
Forced : No
Color range : Limited
Color primaries : BT.709
Transfer characteristics : BT.709
Matrix coefficients : BT.709

Audio #1
ID : 2
Format : E-AC-3
Format/Info : Enhanced AC-3
Commercial name : Dolby Digital Plus
Codec ID : A_EAC3
Duration : 2 h 5 min
Bit rate mode : Constant
Bit rate : 640 kb/s
Channel(s) : 6 channels
Channel layout : L R C LFE Ls Rs
Sampling rate : 48.0 kHz
Frame rate : 31.250 FPS (1536 SPF)
Compression mode : Lossy
Stream size : 574 MiB (5%)
Title : English
Language : English
Service kind : Complete Main
Default : No
Forced : No

Audio #2
ID : 3
Format : E-AC-3
Format/Info : Enhanced AC-3
Commercial name : Dolby Digital Plus
Codec ID : A_EAC3
Duration : 2 h 5 min
Bit rate mode : Constant
Bit rate : 640 kb/s
Channel(s) : 6 channels
Channel layout : L R C LFE Ls Rs
Sampling rate : 48.0 kHz
Frame rate : 31.250 FPS (1536 SPF)
Compression mode : Lossy
Stream size : 574 MiB (5%)
Title : Hindi
Language : Hindi
Service kind : Complete Main
Default : No
Forced : No

Audio #3
ID : 4
Format : E-AC-3
Format/Info : Enhanced AC-3
Commercial name : Dolby Digital Plus
Codec ID : A_EAC3
Duration : 2 h 5 min
Bit rate mode : Constant
Bit rate : 640 kb/s
Channel(s) : 6 channels
Channel layout : L R C LFE Ls Rs
Sampling rate : 48.0 kHz
Frame rate : 31.250 FPS (1536 SPF)
Compression mode : Lossy
Stream size : 574 MiB (5%)
Title : Kannada (India)
Language : Kannada
Service kind : Complete Main
Default : No
Forced : No

Audio #4
ID : 5
Format : E-AC-3
Format/Info : Enhanced AC-3
Commercial name : Dolby Digital Plus
Codec ID : A_EAC3
Duration : 2 h 5 min
Bit rate mode : Constant
Bit rate : 640 kb/s
Channel(s) : 6 channels
Channel layout : L R C LFE Ls Rs
Sampling rate : 48.0 kHz
Frame rate : 31.250 FPS (1536 SPF)
Compression mode : Lossy
Stream size : 574 MiB (5%)
Title : Tamil
Language : Tamil
Service kind : Complete Main
Default : No
Forced : No

Audio #5
ID : 6
Format : E-AC-3
Format/Info : Enhanced AC-3
Commercial name : Dolby Digital Plus
Codec ID : A_EAC3
Duration : 2 h 5 min
Bit rate mode : Constant
Bit rate : 640 kb/s
Channel(s) : 6 channels
Channel layout : L R C LFE Ls Rs
Sampling rate : 48.0 kHz
Frame rate : 31.250 FPS (1536 SPF)
Compression mode : Lossy
Stream size : 574 MiB (5%)
Title : Telugu
Language : Telugu
Service kind : Complete Main
Default : No
Forced : No

Text #1
ID : 7
Format : UTF-8
Codec ID : S_TEXT/UTF8
Codec ID/Info : UTF-8 Plain Text
Duration : 1 h 55 min
Bit rate : 31 b/s
Count of elements : 1021
Stream size : 26.9 KiB (0%)
Title : English [SDH]
Language : English
Default : No
Forced : No

Text #2
ID : 8
Format : UTF-8
Codec ID : S_TEXT/UTF8
Codec ID/Info : UTF-8 Plain Text
Duration : 1 h 55 min
Bit rate : 25 b/s
Count of elements : 718
Stream size : 21.2 KiB (0%)
Title : English
Language : English
Default : No
Forced : No

John Wick: Chapter 3 Screenshots:

John Wick: Chapter 3

John Wick: Chapter 3

John Wick: Chapter 3

John Wick: Chapter 3

John Wick: Chapter 3

Download 1080p – 10.87GB

Download 1080p HEVC – 6.24GB

For All Multi Audio Movies Click Here

Facebook Comments Box

Duration: 130 min

Quality: WEB-DL

Release:

IMDb: 7.4

John Wick: Chapter 3 – Parabellum 2019 AMZN WEB-DL
John Wick: Chapter 3 – Parabellum 2019 AMZN WEB-DL
John Wick: Chapter 3 – Parabellum 2019 AMZN WEB-DL
John Wick: Chapter 3 – Parabellum 2019 AMZN WEB-DL
John Wick: Chapter 3 – Parabellum 2019 AMZN WEB-DL
John Wick: Chapter 3 – Parabellum 2019 AMZN WEB-DL
John Wick: Chapter 3 – Parabellum 2019 AMZN WEB-DL
John Wick: Chapter 3 – Parabellum 2019 AMZN WEB-DL
John Wick: Chapter 3 – Parabellum 2019 AMZN WEB-DL
John Wick: Chapter 3 – Parabellum 2019 AMZN WEB-DL
John Wick: Chapter 3 – Parabellum 2019 AMZN WEB-DL
John Wick: Chapter 3 – Parabellum 2019 AMZN WEB-DL
John Wick: Chapter 3 – Parabellum 2019 AMZN WEB-DL
John Wick: Chapter 3 – Parabellum 2019 AMZN WEB-DL
John Wick: Chapter 3 – Parabellum 2019 AMZN WEB-DL
John Wick: Chapter 3 – Parabellum 2019 AMZN WEB-DL
John Wick: Chapter 3 – Parabellum 2019 AMZN WEB-DL
John Wick: Chapter 3 – Parabellum 2019 AMZN WEB-DL
John Wick: Chapter 3 – Parabellum 2019 AMZN WEB-DL
John Wick: Chapter 3 – Parabellum 2019 AMZN WEB-DL
John Wick: Chapter 3 – Parabellum 2019 AMZN WEB-DL
John Wick: Chapter 3 – Parabellum 2019 AMZN WEB-DL
John Wick: Chapter 3 – Parabellum 2019 AMZN WEB-DL
John Wick: Chapter 3 – Parabellum 2019 AMZN WEB-DL
John Wick: Chapter 3 – Parabellum 2019 AMZN WEB-DL
John Wick: Chapter 3 – Parabellum 2019 AMZN WEB-DL
John Wick: Chapter 3 – Parabellum 2019 AMZN WEB-DL
John Wick: Chapter 3 – Parabellum 2019 AMZN WEB-DL